Ссылка на приватное зеркало нашего сайта всего за 1$. Внимание количество ограничено!!!

2 сезон

iTunes

1 сезон

1

iTunes

iTunes

iTunes

1 сезон

RePack

30

ИГРА 18+

pack

ВАЖНО

!!Акция!!

Alien_RageХит недели

RePack

MK11
pack

Забери бонус

RePack

jed

!!Акция!!

Alien_Rage

RePack

fifa19

RePack

Assassins Creed: Odyssey

RePack

NEED FOR SPEED™ PAYBACK

4 сезон

9 сезон

Бесстыжие 9 сезон

Все сериалы

все сериалы на PB.wtf

RePack

FAR CRY 5
  

Мой любимый динозавр / My Pet Dinosaur (Мэтт Драммонд) [2017, боевик, приключения, семейный, BDRip 1080p] DUB [iTunes] pb.wtf

Мой любимый динозавр через торрент pb.wtf

Размер: 8.91 GB | Добавлен: 2 года 9 мес. назад | Торрент скачан:394 раза
Скачать  

22-01-2018 10:10 Мой любимый динозавр Скачать торрент  

Мой любимый динозавр / My Pet DinosaurГод выпуска: 2017
Страна: Австралия
Жанр: боевик, приключения, семейный
Продолжительность: 01:33:48
Перевод: Дубляж - [iTunes]
Субтитры: отсутствуют

Режиссер: Мэтт Драммонд

rating

В ролях:

Джордан Дулье, Аннабель Вулф, Джоэнн Сэмюэл, Дэвид Робертс, Тириел Мора, Сэм Уинспир-Шиллингс, Дариус Уильямс, Кристофер Габарди, Бет Чемпион, Том Руни

Описание:

Джейк заводит нового необычного друга, но, увы, эксперимент идет не по плану и город превращается в полный хаос. Но существо, с которым подружился Джейк, с каждым днем развивается быстрее, и мальчику становится трудно скрывать питомца. Друзья Джейка понимают, что не их одних интересует этот странный динозавр и вскоре узнают, что самым загадочным в ситуации оказалось не само существо, а тот, кто его искал.

Качество: BDRip 1080p
Формат: MKV

Видео: MPEG-4 AVC, ~ 12600 Кбит/с, 1920x800
Аудио#1: Русский (AC3, 6 ch, 384 Кбит/с)
Аудио#2: английский (AC3, 6 ch, 640 Кбит/с)
скриншот   скриншот   скриншот   скриншот   скриншот  скриншот  

Общее
Уникальный идентификатор : 171802887518301354599484096444786638700 (0x81400855E0576D57A2D6DF6CD5C57F6C)
Полное имя : D:\M0Y.L1u61myj.D1H03aBP.2O17.D.BdRip.1O8Op.mkv
Формат : Matroska
Версия формата : Version 2
Размер файла : 8,91 Гбайт
Продолжительность : 1 ч. 33 м.
Общий поток : 13,6 Мбит/сек
Дата кодирования : UTC 2018-01-21 21:23:00
Программа кодирования : mkvmerge v8.3.0 ('Over the Horizon') 64bit
Библиотека кодирования : libebml v1.3.1 + libmatroska v1.4.2
Обложка : Yes
Attachments : cover.jpg / cover land.jpg

Видео
Идентификатор : 1
Формат : AVC
Формат/Информация : Advanced Video Codec
Профиль формата : High@L4.1
Параметр CABAC формата : Да
Параметр ReFrames формата : 5 кадров
Идентификатор кодека : V_MPEG4/ISO/AVC
Продолжительность : 1 ч. 33 м.
Битрейт : 12,6 Мбит/сек
Ширина : 1920 пикселей
Высота : 800 пикселей
Соотношение сторон : 2,40:1
Режим частоты кадров : Постоянный
Частота кадров : 23,976 (24000/1001) кадра/сек
Цветовое пространство : YUV
Субдискретизация насыщенности : 4:2:0
Битовая глубина : 8 бит
Тип развёртки : Прогрессивная
Бит/(Пиксели*Кадры) : 0.334
Размер потока : 8,06 Гбайт (90%)
Библиотека кодирования : x264 core 152 r2851+58 429492e t_mod_Custom [8-bit@all X86_64]
Настройки программы : cabac=1 / ref=5 / deblock=1:-3:-3 / analyse=0x3:0x133 / me=umh / subme=11 / psy=1 / fade_compensate=0.00 / psy_rd=1.00:0.00 / mixed_ref=1 / me_range=32 / chroma_me=1 / trellis=2 / 8x8dct=1 / cqm=0 / deadzone=21,11 / fast_pskip=0 / chroma_qp_offset=-2 / threads=6 / lookahead_threads=1 / sliced_threads=0 / nr=0 / decimate=0 / interlaced=0 / bluray_compat=0 / constrained_intra=0 / fgo=0 / bframes=8 / b_pyramid=2 / b_adapt=2 / b_bias=0 / direct=3 / weightb=1 / open_gop=0 / weightp=2 / keyint=250 / keyint_min=23 / scenecut=40 / intra_refresh=0 / rc_lookahead=60 / rc=crf / mbtree=0 / crf=14.5000 / qcomp=0.60 / qpmin=0:0:0 / qpmax=69:69:69 / qpstep=4 / vbv_maxrate=62500 / vbv_bufsize=78125 / crf_max=0.0 / nal_hrd=none / filler=0 / ip_ratio=1.30 / pb_ratio=1.20 / aq=3:0.70 / aq-sensitivity=10.00 / aq-factor=1.00:1.00:1.00 / aq2=0 / aq3=0 / zones=0,840,b=2
Язык : English
Default : Да
Forced : Нет
Цветовой диапазон : Limited
Коэффициенты матрицы : BT.709

Аудио #1
Идентификатор : 2
Формат : AC-3
Формат/Информация : Audio Coding 3
Расширение режима : CM (complete main)
Параметр Endianness формата : Big
Идентификатор кодека : A_AC3
Продолжительность : 1 ч. 33 м.
Вид битрейта : Постоянный
Битрейт : 384 Кбит/сек
Каналы : 6 каналов
Расположение каналов : Front: L C R, Side: L R, LFE
Частота : 48,0 КГц
Частота кадров : 31,250 кадров/сек (1536 spf)
Метод сжатия : С потерями
Размер потока : 258 Мбайт (3%)
Язык : Russian
Default : Да
Forced : Нет

Аудио #2
Идентификатор : 3
Формат : AC-3
Формат/Информация : Audio Coding 3
Расширение режима : CM (complete main)
Параметр Endianness формата : Big
Идентификатор кодека : A_AC3
Продолжительность : 1 ч. 33 м.
Вид битрейта : Постоянный
Битрейт : 640 Кбит/сек
Каналы : 6 каналов
Расположение каналов : Front: L C R, Side: L R, LFE
Частота : 48,0 КГц
Частота кадров : 31,250 кадров/сек (1536 spf)
Метод сжатия : С потерями
Размер потока : 430 Мбайт (5%)
Язык : English
Default : Нет
Forced : Нет

Меню
00:00:00.000 : en:Chapter 01
00:09:20.935 : en:Chapter 02
00:17:58.828 : en:Chapter 03
00:25:10.426 : en:Chapter 04
00:32:31.992 : en:Chapte 05
00:40:29.177 : en:Chapter 06
00:47:27.386 : en:Chapter 07
00:54:54.082 : en:Chapter 08
01:02:29.412 : en:Chapter 09
01:11:36.375 : en:Chapter 10
01:19:15.626 : en:Chapter 11
01:26:00.322 : en:Chapter 12

pb.wtf



Скачать Мой любимый динозавр через торрент http://s008.radikal.ru/i303/1709/6a/0ba09f085f9e.jpg Скачать фильм Мой любимый динозавр через торрент бесплантно в хорошем качестве Описание: Джейк заводит нового необычного друга, но, увы, эксперимент идет не по плану и город превращается в полный хаос. Но существо, с ... 9.4 10 16
Торрент: Зарегистрирован [2018-01-22 10:10] · скачан: 394 раз
Статус: √ проверено
Размер: 8.91 GB
Как cкачать? Как скачать Мой любимый динозавр через торрент | qTorrent

% Раздел Тема Автор DL S | L
Фильмы 2017 [DVDrip, WEB-DLRip, HDrip] (DUB, MVO) [ 1.45 GB ] Мой любимый динозавр / My Pet Dinosaur [2017 BDRip] DUB [ R5] bober100 Скачать
1 | 0
Видео для КПК и Смартфонов [ 356 MB ] Мой любимый динозавр / My Pet Dinosaur [2017 HDRip КПК] Dub sergey82 Скачать
1 | 0
Фильмы 2017 [DVDrip, WEB-DLRip, HDrip] (DUB, MVO) [ 1.46 GB ] Мой любимый динозавр / My Pet Dinosaur [2017 BDRip] - [] Twi7ter Скачать
1 | 0
Фильмы 2017 [DVDrip, WEB-DLRip, HDrip] (DUB, MVO) [ 2.64 GB ] Мой любимый динозавр / My Pet Dinosaur [2017 BDRip-AVC - ] WorldSM Скачать
1 | 0
Фильмы (Blu-ray, BD-Remux, HDDVD) [ 15.68 GB ] Мой любимый динозавр / My Pet Dinosaur [2017 BD Remux 1080p] bober100 Скачать
1 | 0
Фильмы 2017 [DVDrip, WEB-DLRip, HDrip] (DUB, MVO) [ 746 MB ] Мой любимый динозавр / My Pet Dinosaur [2017 HDRip] bober100 Скачать
1 | 0

28-11-2019 20:33  

Отключить всю рекламу на сайте

    Дорогой пользователь! Огромная просьба, поблагодарите релизера, оцените раздачу и оставьте свои комментарий, если Вы скачали Мой любимый динозавр через торрент бесплатно! Внесите свою лепту в развитие PiratBit!
    Комментировать посты могут только пользователи прошедшие не сложную регистрацию
    Показать сообщения:    

    Мой любимый динозавр через торрент
    Скачать бесплатно Мой любимый динозавр
    Мой любимый динозавр скачать торрент
    Мой любимый динозавр смотреть онлайн
    Cкачать фильм Мой любимый динозавр бесплатно
    Мой любимый динозавр скачать торрент в хорошем качестве
    Мой любимый динозавр смотреть онлайн бесплатно в хорошем качестве


    Вы не можете начинать темы
    Вы не можете отвечать на сообщения
    Вы не можете редактировать свои сообщения
    Вы не можете удалять свои сообщения
    Вы не можете голосовать в опросах
    Вы не можете прикреплять файлы к сообщениям
    Вы можете скачивать файлы