Ссылка на приватное зеркало нашего сайта всего за 1$. Внимание количество ограничено!!!

2 сезон

iTunes

iTunes

1

iTunes

iTunes

iTunes

WEBRip

iTunes

30
pack

Вам бонус

ВАЖНО

!!Акция!!

Alien_RageХит недели

RePack

Horizon Zero Dawn

ИГРА 18+

pack

RePack

jed

!!Акция!!

Alien_Rage

RePack

fifa19

RePack

Assassins Creed: Odyssey

RePack

NEED FOR SPEED™ PAYBACK

4 сезон

9 сезон

Бесстыжие 9 сезон

Все сериалы

все сериалы на PB.wtf

RePack

FAR CRY 5
  

Жеребьёвка смерти / Dead Draw (Брайан Клемесруд) [2016, триллер, криминал, WEB-DL 720p] MVO ["Синема УС"] pb.wtf

Жеребьёвка смерти через торрент pb.wtf

Качают: 1 [ 0 KB/s ]
Размер: 3.12 GB | Добавлен: 2 года 8 мес. назад | Торрент скачан:105 раз
Скачать  

22-01-2018 14:59 Жеребьёвка смерти Скачать торрент  

Жеребьёвка смерти / Dead DrawГод выпуска: 2016
Страна: США
Жанр: триллер, криминал
Продолжительность: 01:33:37
Перевод: Любительский (многоголосый) ["Синема УС"]
Субтитры: отсутствуют

Режиссер: Брайан Клемесруд

rating

В ролях:

Майкл Эклунд, Битси Таллок, Джил Беллоуз, Бриттани Шоу, Слэйн, Джим Догерти, Энди Аренс, Фауст Чечо, Аарон Криппен, Джош Одор

Описание:

Кроме грабителей 25 миллионов, кто-то еще узнает о деньгах и самолете в Мексику, и этот кто-то убивает пилота, из-за чего четыре друга-грабителя не могут улететь с деньгами. Друзья начинают подозревать друг друга, ищут стукача и превращаются во врагов. Найдут ли они предателя и смогут ли пережить эту ночь?

Качество: WEB-DL 720p
Формат: MKV

Видео: 4381 Кбит/с, 1280x544
Аудио: Русский, (AC3, 2 ch, 384 Кбит/с)

скриншот   скриншот   скриншот  

Общее
Уникальный идентификатор : 224108023159493317073058178224373138671 (0xA899A2A0452DCB6A889E39BFBA1084EF)
Полное имя : D:\Dead.Draw.2016.P.WEB-DL.72Op.mkv
Формат : Matroska
Версия формата : Version 2
Размер файла : 3,12 Гбайт
Продолжительность : 1 ч. 33 м.
Режим общего битрейта : Переменный
Общий поток : 4767 Кбит/сек
Дата кодирования : UTC 2018-01-21 14:12:11
Программа кодирования : mkvmerge v8.3.0 ('Over the Horizon') 64bit
Библиотека кодирования : libebml v1.3.1 + libmatroska v1.4.2

Видео
Идентификатор : 1
Формат : AVC
Формат/Информация : Advanced Video Codec
Профиль формата : High@L4.1
Параметр CABAC формата : Да
Параметр ReFrames формата : 4 кадра
Идентификатор кодека : V_MPEG4/ISO/AVC
Продолжительность : 1 ч. 33 м.
Вид битрейта : Переменный
Битрейт : 4381 Кбит/сек
Максимальный битрейт : 4800 Кбит/сек
Ширина : 1280 пикселей
Высота : 544 пикселя
Соотношение сторон : 2,35:1
Режим частоты кадров : Постоянный
Частота кадров : 23,976 (24000/1001) кадра/сек
Стандарт вещания : Component
Цветовое пространство : YUV
Субдискретизация насыщенности : 4:2:0
Битовая глубина : 8 бит
Тип развёртки : Прогрессивная
Бит/(Пиксели*Кадры) : 0.257
Размер потока : 2,80 Гбайт (90%)
Default : Да
Forced : Нет
Цветовой диапазон : Limited
Основные цвета : BT.709
Характеристики трансфера : BT.709
Коэффициенты матрицы : BT.709

Аудио
Идентификатор : 2
Формат : AC-3
Формат/Информация : Audio Coding 3
Расширение режима : CM (complete main)
Параметр Endianness формата : Big
Идентификатор кодека : A_AC3
Продолжительность : 1 ч. 33 м.
Вид битрейта : Постоянный
Битрейт : 384 Кбит/сек
Каналы : 2 канала
Расположение каналов : Front: L R
Частота : 48,0 КГц
Частота кадров : 31,250 кадров/сек (1536 spf)
Метод сжатия : С потерями
Размер потока : 257 Мбайт (8%)
Default : Да
Forced : Нет

pb.wtf



Скачать Жеребьёвка смерти через торрент http://img12.lostpic.net/2018/01/22/0db73c44af7bda7a666e1a3462e34757.jpg Скачать фильм Жеребьёвка смерти через торрент бесплантно в хорошем качестве Описание: Кроме грабителей 25 миллионов, кто-то еще узнает о деньгах и самолете в Мексику, и этот кто-то убивает пилота, из-за чего четыре ... 10 10 5
Торрент: Зарегистрирован [2018-01-22 14:59] · скачан: 105 раз
Статус: T временная
Размер: 3.12 GB
Как cкачать? Как скачать Жеребьёвка смерти через торрент | qTorrent

% Раздел Тема Автор DL S | L
Фильмы (WEB-DL 720p, 1080p) [ 4.19 GB ] Жеребьёвка смерти / Dead Draw [2016 WEB-DL 1080p] [MVO] killermax2013 Скачать
1 | 0
T Фильмы 2016 [DVDrip, WEB-DLRip, HDrip] (DUB, MVO) [ 1.45 GB ] Жеребьёвка смерти / Dead Draw [2016 WEB-DLRip] [MVO] killermax2013 Скачать
1 | 0

28-11-2019 20:33  

Отключить всю рекламу на сайте

    Дорогой пользователь! Огромная просьба, поблагодарите релизера, оцените раздачу и оставьте свои комментарий, если Вы скачали Жеребьёвка смерти через торрент бесплатно! Внесите свою лепту в развитие PiratBit!
    Комментировать посты могут только пользователи прошедшие не сложную регистрацию
    Показать сообщения:    

    Жеребьёвка смерти через торрент
    Скачать бесплатно Жеребьёвка смерти
    Жеребьёвка смерти скачать торрент
    Жеребьёвка смерти смотреть онлайн
    Cкачать фильм Жеребьёвка смерти бесплатно
    Жеребьёвка смерти скачать торрент в хорошем качестве
    Жеребьёвка смерти смотреть онлайн бесплатно в хорошем качестве


    Вы не можете начинать темы
    Вы не можете отвечать на сообщения
    Вы не можете редактировать свои сообщения
    Вы не можете удалять свои сообщения
    Вы не можете голосовать в опросах
    Вы не можете прикреплять файлы к сообщениям
    Вы можете скачивать файлы