Ссылка на приватное зеркало всего за 1$. Внимание количество ограничено!!!

OK

1+1

iTunes

мы

OK

1

WEB-DLRip

Джокер

Пифагор

Ведьмак / The Witcher сериал

iTunes

ПШазам

ОК

Оно 2

iTunes

30
pack

Вам бонус

ВАЖНО

!!Акция!!

Alien_RageХит недели

RePack

Resident Evil 21

ИГРА 18+

pack

RePack

jed

RePack

fifa19

RePack

Assassins Creed: Odyssey

RePack

NEED FOR SPEED™ PAYBACK

4 сезон

9 сезон

Бесстыжие 9 сезон

Все сериалы

все сериалы на PB.wtf

RePack

FAR CRY 5
  

Побег из Энсенады / Escape from Ensenada / California Dreaming (Брэндон Слэгли) [2017, боевик, триллер, криминал, приключения, BDRip 720p] MVO ["Синема УС] pb.wtf

Побег из Энсенады через торрент pb.wtf

Размер: 3.59 GB | Добавлен: 2 года назад | Торрент скачан:88 раз
Скачать  

22-01-2018 16:44 Побег из Энсенады Скачать торрент  

Побег из Энсенады / Escape from Ensenada / California DreamingГод выпуска: 2017
Страна: США
Жанр: боевик, триллер, криминал, приключения
Продолжительность: 01:23:47
Перевод: Любительский (многоголосый) ["Синема УС]
Субтитры: отсутствуют

Режиссер: Брэндон Слэгли

rating

В ролях:

Бронвин Кэрри-Уилсон, Деванни Пинн, Луис Мэндилор, Джонатан Голдштейн, Хосе Росете, Виктор Бонева, Ноэль Гульеми, Адриана Фонсека, Чарльз Чудабала, Маурицио Ахуд

Описание:

Две студентки из Южной Калифорнии отправляются в отпуск в Мексику. Когда во время круиза их похищают торговцы людьми, им приходится планировать свой побег.

Качество: BDRip 720p
Формат: MKV

Видео: 5684 Кбит/с, 1280x536
Аудио: Русский, (AC3, 2 ch, 448 Кбит/с)

скриншот  скриншот  скриншот  

Общее
Уникальный идентификатор : 234619158998330161908685263418735182142 (0xB08201A264D2F033909A4E3D0E97C13E)
Полное имя : D:\Escape.from.Ensenada.2017.P.BDRip.72Op_KOSHARA.mkv
Формат : Matroska
Версия формата : Version 2
Размер файла : 3,59 Гбайт
Продолжительность : 1 ч. 23 м.
Режим общего битрейта : Переменный
Общий поток : 6134 Кбит/сек
Дата кодирования : UTC 2018-01-20 02:27:30
Программа кодирования : mkvmerge v8.3.0 ('Over the Horizon') 64bit
Библиотека кодирования : libebml v1.3.1 + libmatroska v1.4.2

Видео
Идентификатор : 1
Формат : AVC
Формат/Информация : Advanced Video Codec
Профиль формата : High@L4.1
Параметр CABAC формата : Да
Параметр ReFrames формата : 12 кадров
Идентификатор кодека : V_MPEG4/ISO/AVC
Продолжительность : 1 ч. 23 м.
Вид битрейта : Переменный
Битрейт : 5684 Кбит/сек
Максимальный битрейт : 6200 Кбит/сек
Ширина : 1280 пикселей
Высота : 536 пикселей
Соотношение сторон : 2,40:1
Режим частоты кадров : Постоянный
Частота кадров : 23,976 (24000/1001) кадра/сек
Стандарт вещания : Component
Цветовое пространство : YUV
Субдискретизация насыщенности : 4:2:0
Битовая глубина : 8 бит
Тип развёртки : Прогрессивная
Бит/(Пиксели*Кадры) : 0.338
Размер потока : 3,26 Гбайт (91%)
Default : Да
Forced : Нет
Цветовой диапазон : Limited
Основные цвета : BT.709
Характеристики трансфера : BT.709
Коэффициенты матрицы : BT.709

Аудио
Идентификатор : 2
Формат : AC-3
Формат/Информация : Audio Coding 3
Расширение режима : CM (complete main)
Параметр Endianness формата : Big
Идентификатор кодека : A_AC3
Продолжительность : 1 ч. 23 м.
Вид битрейта : Постоянный
Битрейт : 448 Кбит/сек
Каналы : 2 канала
Расположение каналов : Front: L R
Частота : 48,0 КГц
Частота кадров : 31,250 кадров/сек (1536 spf)
Метод сжатия : С потерями
Размер потока : 269 Мбайт (7%)
Default : Да
Forced : Нет

pb.wtf



Скачать Побег из Энсенады через торрент http://img12.lostpic.net/2018/01/22/bb4a37f7e1a12803a5e4f1eef76c9bc6.jpg Скачать фильм Побег из Энсенады через торрент бесплантно в хорошем качестве Описание: Две студентки из Южной Калифорнии отправляются в отпуск в Мексику. Когда во время круиза их похищают торговцы людьми, им ... 10 10 5
Торрент: Зарегистрирован [2018-01-22 16:44] · скачан: 88 раз
Статус: # сомнительно
Размер: 3.59 GB
Как cкачать? Как скачать Побег из Энсенады через торрент | qTorrent

% Раздел Тема Автор DL S | L
T Фильмы (мультфильмы) cо спонсором показа (Новинки AVI/MKV) [ 1.37 GB ] Побег из Энсенады / Escape from Ensenada / California Dreaming [2017 HDRip] MVO ["Синема УС] bober100 Скачать
1 | 0

28-11-2019 20:33  

Отключить всю рекламу на сайте

    Дорогой пользователь! Огромная просьба, поблагодарите релизера, оцените раздачу и оставьте свои комментарий, если Вы скачали Побег из Энсенады через торрент бесплатно! Внесите свою лепту в развитие PiratBit!
    Комментировать посты могут только пользователи прошедшие не сложную регистрацию
    Показать сообщения:    

    Побег из Энсенады через торрент
    Скачать бесплатно Побег из Энсенады
    Побег из Энсенады скачать торрент
    Побег из Энсенады смотреть онлайн
    Cкачать фильм Побег из Энсенады бесплатно
    Побег из Энсенады скачать торрент в хорошем качестве
    Побег из Энсенады смотреть онлайн бесплатно в хорошем качестве


    Вы не можете начинать темы
    Вы не можете отвечать на сообщения
    Вы не можете редактировать свои сообщения
    Вы не можете удалять свои сообщения
    Вы не можете голосовать в опросах
    Вы не можете прикреплять файлы к сообщениям
    Вы можете скачивать файлы