Ссылка на приватное зеркало нашего сайта всего за 1$. Внимание количество ограничено!!!

2 сезон

iTunes

1 сезон

1

iTunes

iTunes

iTunes

1 сезон

RePack

30

ИГРА 18+

pack

ВАЖНО

!!Акция!!

Alien_RageХит недели

RePack

MK11
pack

Забери бонус

RePack

jed

!!Акция!!

Alien_Rage

RePack

fifa19

RePack

Assassins Creed: Odyssey

RePack

NEED FOR SPEED™ PAYBACK

4 сезон

9 сезон

Бесстыжие 9 сезон

Все сериалы

все сериалы на PB.wtf

RePack

FAR CRY 5
  

Секретарша / Сезон 1 / Серии 1-8 из 8 (Радда Новикова) [2018, Детектив, комедия, WEB-DLRip] pb.wtf

Секретарша через торрент pb.wtf

Размер: 5.02 GB | Добавлен: 2 года 9 мес. назад | Торрент скачан:83 раза
Скачать  

22-01-2018 20:49 Секретарша Скачать торрент  

СекретаршаГод выпуска: 2018
Страна: Россия
Жанр: Детектив, комедия
Продолжительность: x ~ 00:47:00
Субтитры: отсутствуют

Режиссер: Радда Новикова



В ролях:

Ксения Лаврова-Глинка, Михаил Трухин, Илья Коробко, Екатерина Агеева, Любовь Толкалина, Сергей Комаров (II), Ёла Санько, Елена Бирюкова, Валерий Ярёменко, Юлия Полынская, Екатерина Кабак, Григорий Перель, Андрей Шибаршин, Игорь Хрипунов, Валентин Самохин, Екатерина Мадалинская, Ольга Виниченко, Екатерина Куликова, Анна Глазкова, Ярослав Ефременко

Описание:

Жизнь Катерины Морозовой отлажена, как часы. Она секретарь в Следственном комитете: должность, может, и не громкая, но сотрудник Катя незаменимый. Ее знание людей, обширная «агентурная сеть» подруг и умение найти общий язык с любым человеком часто помогают в расследованиях. Сын Олег работает тут же следователем. Замуж Катя так и не вышла, но у нее давний роман с адвокатом Евгением Аристовым. Этот баланс оказывается очень хрупким: уход в отставку любимого начальника, трещина в отношениях с Аристовым, странное поведение сына и появление нового руководителя СК, с которым у Морозовой есть своя история в прошлом – все обрушивается на Катю буквально в один день...

Качество: WEB-DLRip
Формат: AVI

Видео: XviD, ~ 1550 Кбит/с, 720x400
Аудио: AC3, 2 ch, 192 Кбит/с
скриншот  скриншот  скриншот  

Общее
Полное имя : D:\Sekretarcha.2017.WEB-DLRip.Files-x\01.Sekretarcha.2017.WEB-DLRip.Files-x.avi
Формат : AVI
Формат/Информация : Audio Video Interleave
Размер файла : 646 Мбайт
Продолжительность : 52 м. 39 с.
Общий поток : 1715 Кбит/сек
Программа кодирования : VirtualDubMod 1.5.10.3 | www.virtualdub-fr.org || (build 2550/release)
Библиотека кодирования : VirtualDubMod build 2550/release

Видео
Идентификатор : 0
Формат : MPEG-4 Visual
Профиль формата : Advanced Simple@L5
Параметр BVOP формата : 1
Параметр QPel формата : Нет
Параметр GMC формата : Без точки перехода
Параметр матрицы формата : Выборочная
Идентификатор кодека : XVID
Идентификатор кодека/Подсказка : XviD
Продолжительность : 52 м. 39 с.
Битрейт : 1513 Кбит/сек
Ширина : 720 пикселей
Высота : 400 пикселей
Соотношение сторон : 16:9
Частота кадров : 25,000 кадров/сек
Цветовое пространство : YUV
Субдискретизация насыщенности : 4:2:0
Битовая глубина : 8 бит
Тип развёртки : Прогрессивная
Метод сжатия : С потерями
Бит/(Пиксели*Кадры) : 0.210
Размер потока : 570 Мбайт (88%)
Библиотека кодирования : XviD 73

Аудио
Идентификатор : 1
Формат : AC-3
Формат/Информация : Audio Coding 3
Расширение режима : CM (complete main)
Параметр Endianness формата : Big
Идентификатор кодека : 2000
Продолжительность : 52 м. 39 с.
Вид битрейта : Постоянный
Битрейт : 192 Кбит/сек
Каналы : 2 канала
Расположение каналов : Front: L R
Частота : 48,0 КГц
Частота кадров : 31,250 кадров/сек (1536 spf)
Метод сжатия : С потерями
Размер потока : 72,3 Мбайт (11%)
Выравнивание : Разделение по промежуткам
Продолжительность промежутка : 40 мс. (1,00 видеокадр)
Время предзагрузки промежутка : 500 мс.

Когда раздача ведётся путём добавления новых серий, при каждом добавлении создётся новый торрент. Чтобы начать докачку новой серии, пользователям необходимо сделать следующее:
(1) остановить скачивание,
(2) удалить старый торрент у себя из клиента (старые серии удалять не надо),
(3) скачать новый торрент и запустить его у себя в клиенте вместо старого, при этом указать клиенту путь в старую папку, куда и должно происходить скачивание новых серий.
Ваш клиент при этом должен произвести хеширование (проверку) старой папки (если не производит сам - помогите ему сделать это), и будет докачивать только те серии, которых у вас ещё нет. Старые серии при этом не удаляются, а продолжают раздаваться!
Eсли вы уже удалили старые серии, то предотвратить повторную закачку старых серий можно, отжав галочку в соответсвующих местах при запуске нового торрента. По возможности, желательно не удалять старые серии как можно дольше, чтобы релизёр не столько продолжал раздавать старые серии, а смог сконцентрироваться на новых.
pb.wtf



Скачать Секретарша через торрент http://img12.lostpic.net/2018/01/22/ab7d6a26d7de847c964fb04bcd6507c7.jpg Скачать фильм Секретарша через торрент бесплантно в хорошем качестве Описание: Жизнь Катерины Морозовой отлажена, как часы. Она секретарь в Следственном комитете: должность, может, и не громкая, но сотрудник ... 9.6 10 7
Торрент: Зарегистрирован [2018-01-25 21:42] · скачан: 83 раз
Статус: √ проверено
Размер: 5.02 GB
Как cкачать? Как скачать Секретарша через торрент | qTorrent

% Раздел Тема Автор DL S | L
Наши сериалы [ 9.48 GB ] Секретарша / Сезон 1 / Серии 1-8 из 8 [2018 WEB-DL 720p] bober100 Скачать
1 | 0
Наши сериалы [ 20.6 GB ] Секретарша / Сезон 1 / Серии 1-8 из 8 [2018 HDTV 1080i] bober100 Скачать
1 | 0
Наши сериалы [ 5.53 GB ] Секретарша / Сезон 1 / Серии 1-8 из 8 [2018 SATRip] bober100 Скачать
1 | 0


Последний раз редактировалось: bober100 (2018-01-25 21:42), всего редактировалось 2 раз(а)

28-11-2019 20:33  

Отключить всю рекламу на сайте

24-01-2018 05:39 Секретарша Скачать торрент  

+4pb.wtf



25-01-2018 04:55 Секретарша Скачать торрент  

+6pb.wtf



25-01-2018 21:43 Секретарша Скачать торрент  

Сезон полностью!!!pb.wtf



    Дорогой пользователь! Огромная просьба, поблагодарите релизера, оцените раздачу и оставьте свои комментарий, если Вы скачали Секретарша через торрент бесплатно! Внесите свою лепту в развитие PiratBit!
    Комментировать посты могут только пользователи прошедшие не сложную регистрацию
    Показать сообщения:    

    Секретарша через торрент
    Скачать бесплатно Секретарша
    Секретарша скачать торрент
    Секретарша смотреть онлайн
    Cкачать фильм Секретарша бесплатно
    Секретарша скачать торрент в хорошем качестве
    Секретарша смотреть онлайн бесплатно в хорошем качестве


    Вы не можете начинать темы
    Вы не можете отвечать на сообщения
    Вы не можете редактировать свои сообщения
    Вы не можете удалять свои сообщения
    Вы не можете голосовать в опросах
    Вы не можете прикреплять файлы к сообщениям
    Вы можете скачивать файлы