Ссылка на приватное зеркало всего за 1$. Внимание количество ограничено!!!

OK

1+1

iTunes

мы

OK

1

WEB-DLRip

Джокер

Пифагор

Ведьмак / The Witcher сериал

iTunes

ПШазам

ОК

Оно 2

iTunes

30
pack

Вам бонус

ВАЖНО

!!Акция!!

Alien_RageХит недели

RePack

Resident Evil 21

ИГРА 18+

pack

RePack

jed

RePack

fifa19

RePack

Assassins Creed: Odyssey

RePack

NEED FOR SPEED™ PAYBACK

4 сезон

9 сезон

Бесстыжие 9 сезон

Все сериалы

все сериалы на PB.wtf

RePack

FAR CRY 5
  

Убить выпускной / F the Prom (Бенни Файн) [2017 г., комедия, WEB-DLRip, Любительский (многоголосый) (GreenРай Studio)] pb.wtf

Убить выпускной через торрент pb.wtf

Размер: 1.37 GB | Добавлен: 2 года назад | Торрент скачан:173 раза
Скачать  

23-01-2018 04:50 Убить выпускной Скачать торрент  

Убить выпускной / F the Prom
Год выпуска: 2017
Страна: США
Жанр: комедия
Продолжительность: 01:32:55
Перевод: Любительский (многоголосый) (GreenРай Studio)
Субтитры: Нет

Режиссер: Бенни Файн



В ролях: Даниэль Кэмпбелл, Джоэл Кортни, Камерон Палатас, Эйдан Александр, Брендан Калеб Калтон, Николь Том, Марни Алексенбург, Адан Альенде, Люк Билык, Мика Кигик

Описание: В средней школе Мэдди и Коул были близкими друзьями, но с течением времени Мэдди становится одной из самых популярных девочек в школе, а Коул - неудачником. Однако, когда её парень уходит к другой, Мэдди решает объединиться с другом детства, чтобы отомстить бывшему и не дать ему насладиться выпускным.

Доп. информация: ВНИМАНИЕ! Присутствует реклама!

Качество: WEB-DLRip
Формат: AVI
Видео кодек: XviD
Аудио кодек: AC3
Видео: XVID, 720x400 (16:9), 23.976 fps, 1713 Кбит/с
Аудио#1: AC3, 2 ch, 384 Кбит/с
скриншот   скриншот   скриншот   скриншот   скриншот  

General
Complete name : H:\релизы.торрентфайл\F.the.Prom.2017.P.WEB-DLRip.1400Mb.GreenРай Studio.avi
Format : AVI
Format/Info : Audio Video Interleave
File size : 1.37 GiB
Duration : 1h 32mn
Overall bit rate : 2 106 Kbps
Writing application : VirtualDubMod 1.5.10.2 (build 2540/release)
Writing library : VirtualDubMod build 2540/release

Video
ID : 0
Format : MPEG-4 Visual
Format profile : Advanced Simple@L5
Format settings, BVOP : 2
Format settings, QPel : No
Format settings, GMC : No warppoints
Format settings, Matrix : Default (MPEG)
Codec ID : XVID
Codec ID/Hint : XviD
Duration : 1h 32mn
Bit rate : 1 713 Kbps
Width : 720 pixels
Height : 400 pixels
Display aspect ratio : 16:9
Frame rate : 23.976 fps
Color space : YUV
Chroma subsampling : 4:2:0
Bit depth : 8 bits
Scan type : Progressive
Compression mode : Lossy
Bits/(Pixel*Frame) : 0.248
Stream size : 1.11 GiB (81%)
Writing library : XviD 1.2.1 (UTC 2008-12-04)

Audio
ID : 1
Format : AC-3
Format/Info : Audio Coding 3
Mode extension : CM (complete main)
Format settings, Endianness : Big
Codec ID : 2000
Duration : 1h 32mn
Bit rate mode : Constant
Bit rate : 384 Kbps
Channel(s) : 2 channels
Channel positions : Front: L R
Sampling rate : 48.0 KHz
Bit depth : 16 bits
Compression mode : Lossy
Stream size : 255 MiB (18%)
Alignment : Split accross interleaves
Interleave, duration : 42 ms (1.00 video frame)
Interleave, preload duration : 500 ms

pb.wtf



Скачать Убить выпускной через торрент http://i100.fastpic.ru/big/2018/0123/41/7e44a4d8f445c089cb168b4020d1fe41.jpg Скачать фильм Убить выпускной через торрент бесплантно в хорошем качестве Описание: В средней школе Мэдди и Коул были близкими друзьями, но с течением времени Мэдди становится одной из самых популярных девочек в ... 7.4 10 5
Торрент: Зарегистрирован [2018-01-23 04:50] · скачан: 173 раз
Статус: T временная
Размер: 1.37 GB
Как cкачать? Как скачать Убить выпускной через торрент | qTorrent

28-11-2019 20:33  

Отключить всю рекламу на сайте

    Дорогой пользователь! Огромная просьба, поблагодарите релизера, оцените раздачу и оставьте свои комментарий, если Вы скачали Убить выпускной через торрент бесплатно! Внесите свою лепту в развитие PiratBit!
    Комментировать посты могут только пользователи прошедшие не сложную регистрацию
    Показать сообщения:    

    Убить выпускной через торрент
    Скачать бесплатно Убить выпускной
    Убить выпускной скачать торрент
    Убить выпускной смотреть онлайн
    Cкачать фильм Убить выпускной бесплатно
    Убить выпускной скачать торрент в хорошем качестве
    Убить выпускной смотреть онлайн бесплатно в хорошем качестве


    Вы не можете начинать темы
    Вы не можете отвечать на сообщения
    Вы не можете редактировать свои сообщения
    Вы не можете удалять свои сообщения
    Вы не можете голосовать в опросах
    Вы не можете прикреплять файлы к сообщениям
    Вы можете скачивать файлы