Ссылка на приватное зеркало всего за 1$. Внимание количество ограничено!!!

OK

1+1

iTunes

мы

OK

1

WEB-DLRip

Джокер

Пифагор

Ведьмак / The Witcher сериал

iTunes

ПШазам

ОК

Оно 2

iTunes

30
pack

Вам бонус

ВАЖНО

!!Акция!!

Alien_RageХит недели

RePack

Resident Evil 21

ИГРА 18+

pack

RePack

jed

RePack

fifa19

RePack

Assassins Creed: Odyssey

RePack

NEED FOR SPEED™ PAYBACK

4 сезон

9 сезон

Бесстыжие 9 сезон

Все сериалы

все сериалы на PB.wtf

RePack

FAR CRY 5
  

Особый подход (Михаил Григорьев) [1959, СССР, комедия, музыка, SATRip от AVP Studio] pb.wtf

Особый подход через торрент pb.wtf

Размер: 744 MB | Добавлен: 2 года назад | Торрент скачан:18 раз
Скачать  

23-01-2018 09:22 Особый подход Скачать торрент  

Особый подход
Страна: СССР
Производство: Мосфильм

Жанр: комедия, музыка
Год выпуска: 1959
Продолжительность: 01:01:07

Перевод: Не требуется
Cубтитры: нет
Оригинальная аудиодорожка: русский

Режиссер: Михаил Григорьев

В ролях:
Лев Миров, Марк Новицкий, Ия Арепина, Виктор Кольцов (Кутаков), Антонина Максимова, Марк Бернес, Зоя Фёдорова, Сергей Филиппов, Тамара Носова, Михаил Пуговкин, Павел Винник, Валентин Абрамов, Анатолий Федоринов...
Об актёрах подробней

Описание:
Музыкальный фильм о бескомпромиссной борьбе против строительства новой дороги через прекрасный фруктовый сад, расположенный на территории детского сада. По разные стороны баррикад в битве против разгула бюрократизма за права детей оказались герои фильма.

Исходник: DVB
Качество видео: SATRip
Формат видео: AVI

Видео: 688х512 (4:3), 25 fps, XviD ~ 1495 kbps avg, 0.170 bit/pixel
Аудио: 48 kHz, Dolby Digital AC3 2.0, 192 kbps

Раздача от:
Общее
Полное имя : Osobyy.podhod.1959.SATRip_[New-team]_by_AVP_Studio.avi
Формат : AVI
Формат/Информация : Audio Video Interleave
Размер файла : 744 Мбайт
Продолжительность : 1 ч. 1 м.
Общий поток : 1697 Кбит/сек
Программа кодирования : VirtualDubMod 1.5.10.3 | www.virtualdub-fr.org || (build 2550/release)
Библиотека кодирования : VirtualDubMod build 2550/release

Видео
Идентификатор : 0
Формат : MPEG-4 Visual
Профиль формата : Advanced Simple@L5
Настройки формата : BVOP1 / Custom Matrix
Параметр BVOP формата : 1
Параметр QPel формата : Нет
Параметр GMC формата : Без точки перехода
Параметр матрицы формата : Выборочная
Идентификатор кодека : XVID
Идентификатор кодека/Подсказка : XviD
Продолжительность : 1 ч. 1 м.
Битрейт : 1495 Кбит/сек
Ширина : 688 пикселей
Высота : 512 пикселей
Соотношение сторон : 4:3
Частота кадров : 25,000 кадров/сек
Цветовое пространство : YUV
Субдискретизация насыщенности : 4:2:0
Битовая глубина : 8 бит
Тип развёртки : Прогрессивная
Метод сжатия : С потерями
Бит/(Пиксели*Кадры) : 0.170
Размер потока : 656 Мбайт (88%)
Библиотека кодирования : XviD 73

Аудио
Идентификатор : 1
Формат : AC-3
Формат/Информация : Audio Coding 3
Идентификатор кодека : 2000
Продолжительность : 1 ч. 1 м.
Вид битрейта : Постоянный
Битрейт : 192 Кбит/сек
Каналы : 2 канала
Расположение каналов : Front: L R
Частота : 48,0 КГц
Частота кадров : 31,250 кадров/сек (1536 SPF)
Битовая глубина : 16 бит
Метод сжатия : С потерями
Размер потока : 84,2 Мбайт (11%)
Выравнивание : Разделение по промежуткам
Продолжительность промежутка : 40 мс. (1,00 видеокадр)
Время предзагрузки промежутка : 500 мс
pb.wtf



Скачать Особый подход через торрент http://i101.fastpic.ru/big/2018/0123/1d/f965b071cb2efc5453418ba1fb12381d.png Скачать фильм Особый подход через торрент бесплантно в хорошем качестве Описание:Музыкальный фильм о бескомпромиссной борьбе против строительства новой дороги через прекрасный фруктовый сад, расположенный на ... 5 10 1
Info! Золотая раздача, скачанное не засчитывается.
Торрент: Зарегистрирован [2018-01-23 09:22] · скачан: 18 раз
Статус: √ проверено
Размер: 744 MB
Как cкачать? Как скачать Особый подход через торрент | qTorrent

% Раздел Тема Автор DL S | L
Кино СССР [ 743 MB ] Особый подход [1959 СССР музыка SATRip-AVC от AVP Studio] AVP Studio Скачать
1 | 0

28-11-2019 20:33  

Отключить всю рекламу на сайте

    Дорогой пользователь! Огромная просьба, поблагодарите релизера, оцените раздачу и оставьте свои комментарий, если Вы скачали Особый подход через торрент бесплатно! Внесите свою лепту в развитие PiratBit!
    Комментировать посты могут только пользователи прошедшие не сложную регистрацию
    Показать сообщения:    

    Особый подход через торрент
    Скачать бесплатно Особый подход
    Особый подход скачать торрент
    Особый подход смотреть онлайн
    Cкачать фильм Особый подход бесплатно
    Особый подход скачать торрент в хорошем качестве
    Особый подход смотреть онлайн бесплатно в хорошем качестве


    Вы не можете начинать темы
    Вы не можете отвечать на сообщения
    Вы не можете редактировать свои сообщения
    Вы не можете удалять свои сообщения
    Вы не можете голосовать в опросах
    Вы не можете прикреплять файлы к сообщениям
    Вы можете скачивать файлы