Ссылка на приватное зеркало нашего сайта всего за 1$. Внимание количество ограничено!!!

2 сезон

iTunes

1 сезон

1

2 сезон

2 сезон

iTunes

1 сезон

RePack

30

Ultimate

ВАЖНО

ИГРА 18+

pack

RePack

MK11
pack

Забери бонус

RePack

jed

!!Акция!!

Alien_Rage

RePack

fifa19

RePack

Assassins Creed: Odyssey

RePack

NEED FOR SPEED™ PAYBACK

4 сезон

9 сезон

Бесстыжие 9 сезон

Все сериалы

все сериалы на PB.wtf

RePack

FAR CRY 5
  

Развод / Divorce / Сезон 2 / Серии 1-8 из 8 (Джесси Перец, Адам Бернштейн, Джеми Бэббит) [2018, комедия, WEB-DL 720p] MVO [Jaskier] pb.wtf

Развод через торрент pb.wtf

Размер: 6.84 GB | Добавлен: 2 года 8 мес. назад | Торрент скачан:13 раз
Скачать  

23-01-2018 14:20 Развод Скачать торрент  

Развод / DivorceГод выпуска: 2018
Страна: США
Жанр: комедия
Продолжительность: ~ 00:30:00
Перевод: Профессиональный (многоголосый) - студия Jaskier
Субтитры: Английские

Режиссер: Джесси Перец, Адам Бернштейн, Джеми Бэббит

rating

В ролях:

Сара Джессика Паркер, Молли Шеннон, Талия Болсам, Томас Хейден Чёрч, Чарли Килгор, Стерлинг Джеринс, Трэйси Леттс, Финис Эйвери, Jorge Chapa, Джеффри ДеМанн и др.

Описание:

Фрэнсис переживает долгий, трудный развод, который заставляет её по-новому взглянуть на годы совместно прожитой жизни. Оказывается, начать всё с чистого листа не так-то просто.

Качество: WEB-DL 720p
Формат: MKV
Видео кодек: H.264
Аудио кодек: AC3

Видео: ~ 3000 kbps, 1280x720, 23.976 fps
Аудио#1: Rus: AC3, 6 ch, 384 kbps
Аудио#2: Eng: AC3, 6 ch, 384 kbps
скриншот   скриншот   скриншот  

Общее
Уникальный идентификатор : 189953636264112693929416846387423134209 (0x8EE7BD5740D7BFE5A7D0A9F17946C201)
Полное имя : D:\Divorce. Season 2 (WEB-DL l 720p l Jaskier)\Divorce.S02E01.720p.WEB-DL.DDP5.1.H.264-Jaskier.mkv
Формат : Matroska
Версия формата : Version 2
Размер файла : 809 Мбайт
Продолжительность : 31 м. 28 с.
Режим общего битрейта : Переменный
Общий поток : 3593 Кбит/сек
Дата кодирования : UTC 2018-01-23 12:58:30
Программа кодирования : mkvmerge v7.8.0 ('River Man') 32bit built on Apr 3 2015 12:11:22
Библиотека кодирования : libebml v1.3.1 + libmatroska v1.4.2

Видео
Идентификатор : 1
Формат : AVC
Формат/Информация : Advanced Video Codec
Профиль формата : High@L3.1
Параметр CABAC формата : Да
Параметр ReFrames формата : 5 кадров
Идентификатор кодека : V_MPEG4/ISO/AVC
Продолжительность : 31 м. 28 с.
Вид битрейта : Переменный
Битрейт : 2754 Кбит/сек
Максимальный битрейт : 4500 Кбит/сек
Ширина : 1280 пикселей
Высота : 720 пикселей
Соотношение сторон : 16:9
Режим частоты кадров : Постоянный
Частота кадров : 23,976 (24000/1001) кадра/сек
Цветовое пространство : YUV
Субдискретизация насыщенности : 4:2:0
Битовая глубина : 8 бит
Тип развёртки : Прогрессивная
Бит/(Пиксели*Кадры) : 0.125
Размер потока : 620 Мбайт (77%)
Язык : English
Default : Да
Forced : Нет
Цветовой диапазон : Limited
Основные цвета : BT.709
Характеристики трансфера : BT.709
Коэффициенты матрицы : BT.709

Аудио #1
Идентификатор : 2
Формат : AC-3
Формат/Информация : Audio Coding 3
Расширение режима : CM (complete main)
Параметр Endianness формата : Big
Идентификатор кодека : A_AC3
Продолжительность : 31 м. 28 с.
Вид битрейта : Постоянный
Битрейт : 384 Кбит/сек
Каналы : 6 каналов
Расположение каналов : Front: L C R, Side: L R, LFE
Частота : 48,0 КГц
Частота кадров : 31,250 кадров/сек (1536 spf)
Метод сжатия : С потерями
Размер потока : 86,5 Мбайт (11%)
Заголовок : Jaskier
Язык : Russian
Default : Да
Forced : Нет

Аудио #2
Идентификатор : 3
Формат : AC-3
Формат/Информация : Audio Coding 3
Расширение режима : CM (complete main)
Параметр Endianness формата : Big
Идентификатор кодека : A_AC3
Продолжительность : 31 м. 28 с.
Вид битрейта : Постоянный
Битрейт : 384 Кбит/сек
Каналы : 6 каналов
Расположение каналов : Front: L C R, Side: L R, LFE
Частота : 48,0 КГц
Частота кадров : 31,250 кадров/сек (1536 spf)
Метод сжатия : С потерями
Размер потока : 86,5 Мбайт (11%)
Язык : English
Default : Нет
Forced : Нет

Текст
Идентификатор : 4
Формат : UTF-8
Идентификатор кодека : S_TEXT/UTF8
Идентификатор кодека/Информация : UTF-8 Plain Text
Язык : English
Default : Нет
Forced : Нет

Когда раздача ведётся путём добавления новых серий, при каждом добавлении создётся новый торрент. Чтобы начать докачку новой серии, пользователям необходимо сделать следующее:
(1) остановить скачивание,
(2) удалить старый торрент у себя из клиента (старые серии удалять не надо),
(3) скачать новый торрент и запустить его у себя в клиенте вместо старого, при этом указать клиенту путь в старую папку, куда и должно происходить скачивание новых серий.
Ваш клиент при этом должен произвести хеширование (проверку) старой папки (если не производит сам - помогите ему сделать это), и будет докачивать только те серии, которых у вас ещё нет. Старые серии при этом не удаляются, а продолжают раздаваться!
Eсли вы уже удалили старые серии, то предотвратить повторную закачку старых серий можно, отжав галочку в соответсвующих местах при запуске нового торрента. По возможности, желательно не удалять старые серии как можно дольше, чтобы релизёр не столько продолжал раздавать старые серии, а смог сконцентрироваться на новых.
pb.wtf



Скачать Развод через торрент http://i101.fastpic.ru/big/2018/0123/70/12feef0c06c34f580e39502ff4b6c770.jpg Скачать фильм Развод через торрент бесплантно в хорошем качестве Описание: Фрэнсис переживает долгий, трудный развод, который заставляет её по-новому взглянуть на годы совместно прожитой жизни. ... 10 10 3
Торрент: Зарегистрирован [2018-03-14 14:54] · скачан: 13 раз
Статус: √ проверено
Размер: 6.84 GB
Как cкачать? Как скачать Развод через торрент | qTorrent

% Раздел Тема Автор DL S | L
Зарубежные сериалы [ 3.13 GB ] Развод / Divorce / Сезон 2 / Серии 1-8 из 8 [2018 WEB-DLRip] MVO [Jaskier] bober100 Скачать
1 | 0

28-11-2019 20:33  

Отключить всю рекламу на сайте

    Дорогой пользователь! Огромная просьба, поблагодарите релизера, оцените раздачу и оставьте свои комментарий, если Вы скачали Развод через торрент бесплатно! Внесите свою лепту в развитие PiratBit!
    Комментировать посты могут только пользователи прошедшие не сложную регистрацию
    Показать сообщения:    

    Развод через торрент
    Скачать бесплатно Развод
    Развод скачать торрент
    Развод смотреть онлайн
    Cкачать фильм Развод бесплатно
    Развод скачать торрент в хорошем качестве
    Развод смотреть онлайн бесплатно в хорошем качестве


    Вы не можете начинать темы
    Вы не можете отвечать на сообщения
    Вы не можете редактировать свои сообщения
    Вы не можете удалять свои сообщения
    Вы не можете голосовать в опросах
    Вы не можете прикреплять файлы к сообщениям
    Вы можете скачивать файлы