Ссылка на приватное зеркало всего за 1$. Внимание количество ограничено!!!


iTunes

1+1

iTunes

мы

WEB-DL

1

iTunes

Чернобыль

iTunes

Ральф против интернета

Лицензия

ПШазам

Лицензия

Оно 2

WEB-DL

30
pack

Вам бонус

ВАЖНО

!!Акция!!

Alien_RageХит недели

RePack

Resident Evil 21

ИГРА 18+

pack

RePack

jed

!!Акция!!

Alien_Rage

RePack

fifa19

RePack

Assassins Creed: Odyssey

RePack

NEED FOR SPEED™ PAYBACK

4 сезон

9 сезон

Бесстыжие 9 сезон

Все сериалы

все сериалы на PB.wtf

RePack

FAR CRY 5
Ребята, катастрофически не хватает 1900р. для оплаты серверов за Октябрь (всвязи с блокировками трафик упал в 3 раза), 1-2р., выручайте.
  

Лифт на эшафот / Ascenseur pour l'échafaud / Elevator to the Gallows (Луи Маль / Louis Malle) [1958, триллер, драма, криминал, BDRip-AVC] MVO + DVO pb.wtf

Лифт на эшафот через торрент pb.wtf

Раздают: 1 [ 0 KB/s ]
Размер: 3 GB | Добавлен: 1 год 10 мес. назад | Торрент скачан:24 раза
Скачать  

23-01-2018 14:51 Лифт на эшафот Скачать торрент  

Лифт на эшафот
Ascenseur pour l'échafaud / Elevator to the Gallows

«Frantic for life and love - Frantic for excitement»


Страна: Франция
Жанр: триллер, драма, криминал

Год выпуска: 1958
Продолжительность: 01:31:07

Перевод 1: Профессиональный (многоголосый, закадровый) [Артхаус]
Перевод 2: Профессиональный (двухголосый, закадровый) [Синема Престиж]
Субтитры: русские (2 вида), английские, французские
Оригинальная аудиодорожка: французский

Режиссер: Луи Маль / Louis Malle

В ролях: Жанна Моро, Морис Роне, Жорж Пужули, Йори Бертен, Лино Вентура, Жан Валь, Эльга Андерсен, Сильвен Айзенштейн, Мишлин Бона, Жизель Гранпре, Жаклин Сто, Марсель Кювелье

Описание:
Жена с любовником планируют и осуществляют убийство мужа, но «идеального» преступления не получается. Он забывает на балконе веревку, по которой залез в окно офиса, возвращается за ней, но застревает в лифте.



Релиз:

Автор рипа: stalkerok | Моя группа

Сэмпл

Качество видео: BDRip-AVC [Ascenseur pour l'échafaud (1958) Blu-ray disc (custom) - HDCLUB / rutrаcker]
Формат видео: MKV
Видео кодек: AVC
Аудио кодек: AC3
Видео: 4138 Кбит/сек, 888*648 (1.370), 24 кадр/сек, AVC
Аудио 1: русский, 192 Кбит/сек, 48 КГц, 2.0, AC3 [Артхаус]
Аудио 2: русский, 192 Кбит/сек, 48 КГц, 2.0, AC3 [Синема Престиж]
Аудио 3: французский, 192 Кбит/сек, 48 КГц, 2.0, AC3
Навигация по главам: есть

---[Information] [16.01.2018 16:03:52] x264 [info]: frame I:658 Avg QP:16.27 size: 62187
---[Information] [16.01.2018 16:03:52] x264 [info]: frame P:24195 Avg QP:18.48 size: 36153
---[Information] [16.01.2018 16:03:52] x264 [info]: frame B:106378 Avg QP:21.39 size: 17979

Общее
Уникальный идентификатор : 189595556783066610778647095819289614334 (0x8EA2C6A8CBDD6159A8AF110D658DD7FE)
Полное имя : M:\$oldrerips\Elevator to the Gallows\Ascenseur.pour.l'échafaud.1958.BDRip-AVC.RUS.FRE.stalkerok.new-team.mkv
Формат : Matroska
Версия формата : Version 4 / Version 2
Размер файла : 3,00 Гбайт
Продолжительность : 1 ч. 31 м.
Общий поток : 4717 Кбит/сек
Название фильма : Ascenseur pour l'échafaud (1958) (Rip by stalkerok)
Дата кодирования : UTC 2018-01-23 13:27:38
Программа кодирования : mkvmerge v8.6.1 ('Flying') 64bit
Библиотека кодирования : libebml v1.3.3 + libmatroska v1.4.4

Видео
Идентификатор : 3
Формат : AVC
Формат/Информация : Advanced Video Codec
Профиль формата : High@L4.1
Параметр CABAC формата : Да
Параметр ReFrames формата : 14 кадров
Идентификатор кодека : V_MPEG4/ISO/AVC
Продолжительность : 1 ч. 31 м.
Битрейт : 4138 Кбит/сек
Ширина : 888 пикселей
Высота : 648 пикселей
Соотношение сторон : 1,370
Режим частоты кадров : Постоянный
Частота кадров : 24,000 кадра/сек
Цветовое пространство : YUV
Субдискретизация насыщенности : 4:2:0
Битовая глубина : 8 бит
Тип развёртки : Прогрессивная
Бит/(Пиксели*Кадры) : 0.300
Размер потока : 2,63 Гбайт (88%)
Заголовок : Ascenseur pour l'échafaud (1958) (Rip by stalkerok)
Библиотека кодирования : x264 core 152 r2851kMod ba24899
Настройки программы : cabac=1 / ref=14 / deblock=1:-3:-2 / analyse=0x3:0x133 / me=umh / subme=11 / psy=1 / fade_compensate=0.00 / psy_rd=1.00:0.00 / mixed_ref=1 / me_range=32 / chroma_me=1 / trellis=2 / 8x8dct=1 / cqm=0 / deadzone=21,11 / fast_pskip=0 / chroma_qp_offset=-2 / threads=12 / lookahead_threads=3 / sliced_threads=0 / nr=0 / decimate=1 / interlaced=0 / bluray_compat=0 / constrained_intra=0 / bframes=14 / b_pyramid=2 / b_adapt=2 / b_bias=0 / direct=3 / weightb=1 / open_gop=0 / weightp=2 / keyint=240 / keyint_min=23 / scenecut=40 / intra_refresh=0 / rc_lookahead=60 / rc=crf / mbtree=0 / crf=19.1000 / qcomp=0.65 / qpmin=0 / qpmax=69 / qpstep=4 / vbv_maxrate=50000 / vbv_bufsize=62500 / crf_max=0.0 / nal_hrd=none / filler=0 / ip_ratio=1.40 / pb_ratio=1.30 / aq=3:0.85
Default : Да
Forced : Нет

Аудио #1
Идентификатор : 4
Формат : AC-3
Формат/Информация : Audio Coding 3
Расширение режима : CM (complete main)
Параметр Endianness формата : Big
Идентификатор кодека : A_AC3
Продолжительность : 1 ч. 31 м.
Вид битрейта : Постоянный
Битрейт : 192 Кбит/сек
Каналы : 2 канала
Расположение каналов : Front: L R
Частота : 48,0 КГц
Частота кадров : 31,250 кадров/сек (1536 spf)
Метод сжатия : С потерями
Размер потока : 125 Мбайт (4%)
Заголовок : Артхаус
Язык : Russian
Default : Да
Forced : Нет

Аудио #2
Идентификатор : 5
Формат : AC-3
Формат/Информация : Audio Coding 3
Расширение режима : CM (complete main)
Параметр Endianness формата : Big
Идентификатор кодека : A_AC3
Продолжительность : 1 ч. 31 м.
Вид битрейта : Постоянный
Битрейт : 192 Кбит/сек
Каналы : 2 канала
Расположение каналов : Front: L R
Частота : 48,0 КГц
Частота кадров : 31,250 кадров/сек (1536 spf)
Метод сжатия : С потерями
Размер потока : 125 Мбайт (4%)
Заголовок : Синема Престиж
Язык : Russian
Default : Нет
Forced : Нет

Аудио #3
Идентификатор : 8
Формат : AC-3
Формат/Информация : Audio Coding 3
Расширение режима : CM (complete main)
Параметр Endianness формата : Big
Идентификатор кодека : A_AC3
Продолжительность : 1 ч. 31 м.
Вид битрейта : Постоянный
Битрейт : 192 Кбит/сек
Каналы : 2 канала
Расположение каналов : Front: L R
Частота : 48,0 КГц
Частота кадров : 31,250 кадров/сек (1536 spf)
Метод сжатия : С потерями
Размер потока : 125 Мбайт (4%)
Язык : French
Default : Нет
Forced : Нет

Текст #1
Идентификатор : 1
Формат : UTF-8
Идентификатор кодека : S_TEXT/UTF8
Идентификатор кодека/Информация : UTF-8 Plain Text
Продолжительность : 1 ч. 31 м.
Битрейт : 60 бит/сек
Count of elements : 750
Размер потока : 40,2 Кбайт (0%)
Язык : Russian
Default : Нет
Forced : Нет

Текст #2
Идентификатор : 2
Формат : UTF-8
Идентификатор кодека : S_TEXT/UTF8
Идентификатор кодека/Информация : UTF-8 Plain Text
Продолжительность : 1 ч. 30 м.
Битрейт : 65 бит/сек
Count of elements : 671
Размер потока : 43,7 Кбайт (0%)
Язык : Russian
Default : Нет
Forced : Нет

Текст #3
Идентификатор : 6
Формат : UTF-8
Идентификатор кодека : S_TEXT/UTF8
Идентификатор кодека/Информация : UTF-8 Plain Text
Продолжительность : 1 ч. 30 м.
Битрейт : 39 бит/сек
Count of elements : 749
Размер потока : 26,2 Кбайт (0%)
Язык : French
Default : Нет
Forced : Нет

Текст #4
Идентификатор : 7
Формат : UTF-8
Идентификатор кодека : S_TEXT/UTF8
Идентификатор кодека/Информация : UTF-8 Plain Text
Продолжительность : 1 ч. 30 м.
Битрейт : 32 бит/сек
Count of elements : 745
Размер потока : 21,4 Кбайт (0%)
Язык : English
Default : Нет
Forced : Нет

Меню
00:00:00.000 : en:Chapter 1
00:09:32.583 : en:Chapter 2
00:14:45.416 : en:Chapter 3
00:21:12.541 : en:Chapter 4
00:28:29.041 : en:Chapter 5
00:39:44.500 : en:Chapter 6
00:48:33.583 : en:Chapter 7
00:56:51.875 : en:Chapter 8
01:07:08.208 : en:Chapter 9
01:14:06.041 : en:Chapter 10
01:20:55.208 : en:Chapter 11
01:26:37.083 : en:Chapter 12
скриншот   скриншот   скриншот   скриншот   скриншот   скриншот   скриншот  
pb.wtf



Скачать Лифт на эшафот через торрент http://i6.imageban.ru/out/2017/09/18/2ff75c0c358795c5946784cc1680714d.png Скачать фильм Лифт на эшафот через торрент бесплантно в хорошем качестве Описание:Жена с любовником планируют и осуществляют убийство мужа, но «идеального» преступления не получается. Он забывает на балконе ... 10 10 2
Info! Золотая раздача, скачанное не засчитывается.
Торрент: Зарегистрирован [2018-01-23 14:51] · скачан: 24 раз
Статус: √ проверено
Размер: 3 GB
Как cкачать? Как скачать Лифт на эшафот через торрент | qTorrent

28-11-2019 20:33  

Отключить всю рекламу на сайте

    Дорогой пользователь! Огромная просьба, поблагодарите релизера, оцените раздачу и оставьте свои комментарий, если Вы скачали Лифт на эшафот через торрент бесплатно! Внесите свою лепту в развитие PiratBit!
    Комментировать посты могут только пользователи прошедшие не сложную регистрацию
    Показать сообщения:    

    Лифт на эшафот через торрент
    Скачать бесплатно Лифт на эшафот
    Лифт на эшафот скачать торрент
    Лифт на эшафот смотреть онлайн
    Cкачать фильм Лифт на эшафот бесплатно
    Лифт на эшафот скачать торрент в хорошем качестве
    Лифт на эшафот смотреть онлайн бесплатно в хорошем качестве


    Вы не можете начинать темы
    Вы не можете отвечать на сообщения
    Вы не можете редактировать свои сообщения
    Вы не можете удалять свои сообщения
    Вы не можете голосовать в опросах
    Вы не можете прикреплять файлы к сообщениям
    Вы можете скачивать файлы