Ссылка на приватное зеркало нашего сайта всего за 1$. Внимание количество ограничено!!!

2 сезон

iTunes

1 сезон

1

iTunes

iTunes

iTunes

1 сезон

RePack

30

ИГРА 18+

pack

ВАЖНО

!!Акция!!

Alien_RageХит недели

RePack

MK11
pack

Забери бонус

RePack

jed

!!Акция!!

Alien_Rage

RePack

fifa19

RePack

Assassins Creed: Odyssey

RePack

NEED FOR SPEED™ PAYBACK

4 сезон

9 сезон

Бесстыжие 9 сезон

Все сериалы

все сериалы на PB.wtf

RePack

FAR CRY 5
  

Застрял в любви / Stuck in Love (Джош Бун ) [2012, драма, мелодрама, комедия, BDRip 720p от _denis_100 | NNNB] 2xMVO + Original + Sub (Rus,Eng) pb.wtf

Застрял в любви через торрент pb.wtf

Раздают: 1 [ 0 KB/s ]
Размер: 3.67 GB | Добавлен: 2 года 9 мес. назад | Торрент скачан:114 раз
Скачать  

23-01-2018 15:26 Застрял в любви Скачать торрент  

Застрял в любви / Stuck in Love
«A story of first loves and second chances»


Год выпуска: 2012
Страна: США
Жанр: драма, мелодрама, комедия
Продолжительность: 01:36:52
Перевод: Профессиональный многоголосый , Любительский многоголосый
Субтитры: русские (Notabenoid), английские
Режиссер: Джош Бун
В ролях: Грег Киннир , Дженнифер Коннелли , Лили Коллинз , Нат Вулф , Кристен Белл , Логан Лерман , Лиана Либерато , Майкл Гудвин , Стивен Кинг , Расти Джойнер , Патрик Шварценеггер , Дэвид Карзелл
Описание:
Сюжет фильма сосредоточен на запутанных отношениях между известным новеллистом Биллом Борджес, его бывшей женой и их детьми - дочерью-студенткой Самантой и сыном-тинейджером.

R - Лицам до 17 лет обязательно присутствие взрослого
Качество: BDRip 720p
Контейнер (Расширение): MKV
Видео: 1280x720, 4345 Кбит/сек, 23,976 кадр/сек, 0,197 Бит/[Пиксели*Кадры]
Аудио №1: русский / AC3 / 5.1 / 48 kHz / 192 kbps / |Профессиональный многоголосый, TV1000|
Аудио №2: русский / AC3 / 5.1 / 48 kHz / 448 kbps / |Любительский многоголосый, Victory Films|
Аудио №3: английский / AC3 / 5.1 / 48 kHz / 448 kbps /
Навигация по главам(Чаптеры): естьАвтор рипа: Группа: ***Русская дорожка TV1000 невысокого качества, на ТВ показывали сокращенную версию. Поэтому в пропущенные места сделаны вставки с любительской озвучки Victory Films. Но по качеству перевода и озвучки она лучше поэтому выставлена по умолчанию под №1
Format version : Version 2
File size : 3.67 GiB
Duration : 1 h 36 min
Overall bit rate : 5 421 kb/s
Movie name : Stuck in Love.(2012).BDRip.720p.[denis100]
Encoded date : UTC 2018-01-23 14:40:40
Writing application : mkvmerge v5.8.0 ('No Sleep / Pillow') built on Sep 2 2012 15:37:04
Writing library : libebml v1.2.3 + libmatroska v1.3.0

Video
ID : 1
Format : AVC
Format/Info : Advanced Video Codec
Format profile : High@L4.1
Format settings, CABAC : Yes
Format settings, ReFrames : 9 frames
Codec ID : V_MPEG4/ISO/AVC
Duration : 1 h 36 min
Bit rate : 4 345 kb/s
Width : 1 280 pixels
Height : 720 pixels
Display aspect ratio : 16:9
Frame rate mode : Constant
Frame rate : 23.976 (24000/1001) FPS
Color space : YUV
Chroma subsampling : 4:2:0
Bit depth : 8 bits
Scan type : Progressive
Bits/(Pixel*Frame) : 0.197
Stream size : 2.86 GiB (78%)
Title : Stuck in Love.(2012).BDRip.720p.[denis100]
Writing library : x264 core 152 r2851 ba24899
Encoding settings : cabac=1 / ref=9 / deblock=1:-3:-3 / analyse=0x3:0x113 / me=umh / subme=11 / psy=1 / psy_rd=1.00:0.05 / mixed_ref=1 / me_range=32 / chroma_me=1 / trellis=2 / 8x8dct=1 / cqm=0 / deadzone=21,11 / fast_pskip=0 / chroma_qp_offset=-3 / threads=6 / lookahead_threads=1 / sliced_threads=0 / nr=0 / decimate=1 / interlaced=0 / bluray_compat=0 / constrained_intra=0 / bframes=10 / b_pyramid=2 / b_adapt=2 / b_bias=0 / direct=3 / weightb=1 / open_gop=0 / weightp=2 / keyint=240 / keyint_min=23 / scenecut=40 / intra_refresh=0 / rc=2pass / mbtree=0 / bitrate=4345 / ratetol=1.0 / qcomp=0.60 / qpmin=0 / qpmax=69 / qpstep=4 / cplxblur=20.0 / qblur=0.5 / ip_ratio=1.40 / pb_ratio=1.30 / aq=1:0.95
Language : English
Default : Yes
Forced : No

Audio #1
ID : 2
Format : AC-3
Format/Info : Audio Coding 3
Mode extension : CM (complete main)
Format settings, Endianness : Big
Codec ID : A_AC3
Duration : 1 h 36 min
Bit rate mode : Constant
Bit rate : 192 kb/s
Channel(s) : 6 channels
Channel positions : Front: L C R, Side: L R, LFE
Sampling rate : 48.0 kHz
Frame rate : 31.250 FPS (1536 spf)
Compression mode : Lossy
Stream size : 133 MiB (4%)
Title : MVO, TV1000
Language : Russian
Default : Yes
Forced : No

Audio #2
ID : 3
Format : AC-3
Format/Info : Audio Coding 3
Mode extension : CM (complete main)
Format settings, Endianness : Big
Codec ID : A_AC3
Duration : 1 h 36 min
Bit rate mode : Constant
Bit rate : 448 kb/s
Channel(s) : 6 channels
Channel positions : Front: L C R, Side: L R, LFE
Sampling rate : 48.0 kHz
Frame rate : 31.250 FPS (1536 spf)
Compression mode : Lossy
Stream size : 310 MiB (8%)
Title : MVO, Victory Films
Language : Russian
Default : No
Forced : No

Audio #3
ID : 4
Format : AC-3
Format/Info : Audio Coding 3
Mode extension : CM (complete main)
Format settings, Endianness : Big
Codec ID : A_AC3
Duration : 1 h 36 min
Bit rate mode : Constant
Bit rate : 448 kb/s
Channel(s) : 6 channels
Channel positions : Front: L C R, Side: L R, LFE
Sampling rate : 48.0 kHz
Frame rate : 31.250 FPS (1536 spf)
Compression mode : Lossy
Stream size : 310 MiB (8%)
Language : English
Default : No
Forced : No

Text #1
ID : 5
Format : UTF-8
Codec ID : S_TEXT/UTF8
Codec ID/Info : UTF-8 Plain Text
Title : Notabenoid
Language : Russian
Default : No
Forced : No

Text #2
ID : 6
Format : UTF-8
Codec ID : S_TEXT/UTF8
Codec ID/Info : UTF-8 Plain Text
Language : English
Default : No
Forced : No

Menu
00:00:00.000 : en:00:00:00.000
00:07:22.275 : en:00:07:22.275
00:16:54.305 : en:00:16:54.305
00:26:52.694 : en:00:26:52.694
00:34:54.968 : en:00:34:54.968
00:41:26.859 : en:00:41:26.859
00:50:32.196 : en:00:50:32.196
00:57:48.632 : en:00:57:48.632
01:08:03.663 : en:01:08:03.663
01:15:57.303 : en:01:15:57.303
01:25:54.608 : en:01:25:54.608
01:32:44.684 : en:01:32:44.684
pb.wtf



Скачать Застрял в любви через торрент http://i2.imageban.ru/out/2018/01/23/bf01ad2136e115cadb7011c15a58cbe6.png Скачать фильм Застрял в любви через торрент бесплантно в хорошем качестве Описание:Сюжет фильма сосредоточен на запутанных отношениях между известным новеллистом Биллом Борджес, его бывшей женой и их детьми - ... 10 10 2
Info! Золотая раздача, скачанное не засчитывается.
Торрент: Зарегистрирован [2018-01-23 15:26] · скачан: 114 раз
Статус: √ проверено
Размер: 3.67 GB
Как cкачать? Как скачать Застрял в любви через торрент | qTorrent

% Раздел Тема Автор DL S | L
Фильмы 2012 [ 2.18 GB ] Застрял в любви / Stuck in Love [2012 BDRip-AVC от _denis_100 | NNNB] 2xMVO + Original + Sub _denis_100 Скачать
2 | 0
Фильмы 2012 [ 1.48 GB ] Застрял в любви / Stuck in Love [2012 BDRip-AVCЛюбительский многоголосый KEYS Скачать
1 | 0

28-11-2019 20:33  

Отключить всю рекламу на сайте

    Дорогой пользователь! Огромная просьба, поблагодарите релизера, оцените раздачу и оставьте свои комментарий, если Вы скачали Застрял в любви через торрент бесплатно! Внесите свою лепту в развитие PiratBit!
    Комментировать посты могут только пользователи прошедшие не сложную регистрацию
    Показать сообщения:    

    Застрял в любви через торрент
    Скачать бесплатно Застрял в любви
    Застрял в любви скачать торрент
    Застрял в любви смотреть онлайн
    Cкачать фильм Застрял в любви бесплатно
    Застрял в любви скачать торрент в хорошем качестве
    Застрял в любви смотреть онлайн бесплатно в хорошем качестве


    Вы не можете начинать темы
    Вы не можете отвечать на сообщения
    Вы не можете редактировать свои сообщения
    Вы не можете удалять свои сообщения
    Вы не можете голосовать в опросах
    Вы не можете прикреплять файлы к сообщениям
    Вы можете скачивать файлы