Ссылка на приватное зеркало всего за 1$. Внимание количество ограничено!!!

OK

1+1

iTunes

мы

OK

1

WEB-DLRip

Джокер

Пифагор

Ведьмак / The Witcher сериал

iTunes

ПШазам

ОК

Оно 2

iTunes

30
pack

Вам бонус

ВАЖНО

!!Акция!!

Alien_RageХит недели

RePack

Resident Evil 21

ИГРА 18+

pack

RePack

jed

RePack

fifa19

RePack

Assassins Creed: Odyssey

RePack

NEED FOR SPEED™ PAYBACK

4 сезон

9 сезон

Бесстыжие 9 сезон

Все сериалы

все сериалы на PB.wtf

RePack

FAR CRY 5
  

Баллада о Лефти Брауне / The Ballad of Lefty Brown (Джаред Моше) [2017, вестерн, WEB-DL 720p] MVO [GreenРай Studio] pb.wtf

Баллада о Лефти Брауне через торрент pb.wtf

Размер: 3.9 GB | Добавлен: 2 года назад | Торрент скачан:94 раза
Скачать  

23-01-2018 16:32 Баллада о Лефти Брауне Скачать торрент  

Баллада о Лефти Брауне / The Ballad of Lefty BrownГод выпуска: 2017
Страна: США
Жанр: вестерн
Продолжительность: 01:52:25
Перевод: Любительский (многоголосый) - скриншот  
Субтитры: отсутствуют

Режиссер: Джаред Моше

rating

В ролях:

Билл Пуллман, Питер Фонда, Джозеф Андерсон, Майкл Спирс, Диллинджер Стил, Джо Андерсон, Кэти Бейкер

Описание:

Пожилые приятели Лефти Браун и Эдди Джонсон всю свою жизнь работали вместе. Внезапное убийство Эдди вынуждают Лефти выйти из тени своего партнёра, теперь ему придётся противостоять уродливым реалиям за границами правосудия.

Качество: WEB-DL 720p
Формат: MKV

Видео: 1280x528 (2:40:1), 23.976 fps, 4 496 Кбит/с
Аудио#1: AC3, 2 ch, 384 Кбит/с

скриншот  скриншот  скриншот  

Общее
Уникальный идентификатор : 254017765354800304122417340684904366332 (0xBF1A0AC51EBEF7839C3BAB159DB300FC)
Полное имя : D:\The.Ballad.of.Lefty.Brown.2017.P.WEB-DL.720p.GreenРай Studio.mkv
Формат : Matroska
Версия формата : Version 4 / Version 2
Размер файла : 3,90 Гбайт
Продолжительность : 1 ч. 52 м.
Общий поток : 4980 Кбит/сек
Дата кодирования : UTC 2018-01-22 14:29:30
Программа кодирования : mkvmerge v8.3.0 ('Over the Horizon') 64bit
Библиотека кодирования : libebml v1.3.1 + libmatroska v1.4.2

Видео
Идентификатор : 1
Формат : AVC
Формат/Информация : Advanced Video Codec
Профиль формата : High@L3.1
Параметр CABAC формата : Да
Параметр ReFrames формата : 4 кадра
Идентификатор кодека : V_MPEG4/ISO/AVC
Продолжительность : 1 ч. 52 м.
Битрейт : 4496 Кбит/сек
Ширина : 1280 пикселей
Высота : 528 пикселей
Соотношение сторон : 2,40:1
Режим частоты кадров : Постоянный
Частота кадров : 23,976 (24000/1001) кадра/сек
Частота кадров в оригинале : 23,976 (23976/1000) кадра/сек
Цветовое пространство : YUV
Субдискретизация насыщенности : 4:2:0
Битовая глубина : 8 бит
Тип развёртки : Прогрессивная
Бит/(Пиксели*Кадры) : 0.277
Размер потока : 3,52 Гбайт (90%)
Библиотека кодирования : x264 core 146 r2538 121396c
Настройки программы : cabac=1 / ref=1 / deblock=1:0:0 / analyse=0x3:0x113 / me=hex / subme=2 / psy=1 / psy_rd=1.00:0.00 / mixed_ref=0 / me_range=16 / chroma_me=1 / trellis=0 / 8x8dct=1 / cqm=0 / deadzone=21,11 / fast_pskip=1 / chroma_qp_offset=0 / threads=18 / lookahead_threads=4 / sliced_threads=0 / nr=0 / decimate=1 / interlaced=0 / bluray_compat=0 / constrained_intra=0 / bframes=3 / b_pyramid=2 / b_adapt=1 / b_bias=0 / direct=1 / weightb=1 / open_gop=0 / weightp=1 / keyint=250 / keyint_min=23 / scenecut=40 / intra_refresh=0 / rc_lookahead=10 / rc=crf / mbtree=1 / crf=13.1 / qcomp=0.60 / qpmin=0 / qpmax=69 / qpstep=4 / ip_ratio=1.40 / aq=1:1.00
Default : Да
Forced : Нет

Аудио
Идентификатор : 2
Формат : AC-3
Формат/Информация : Audio Coding 3
Расширение режима : CM (complete main)
Параметр Endianness формата : Big
Идентификатор кодека : A_AC3
Продолжительность : 1 ч. 52 м.
Вид битрейта : Постоянный
Битрейт : 384 Кбит/сек
Каналы : 2 канала
Расположение каналов : Front: L R
Частота : 48,0 КГц
Частота кадров : 31,250 кадров/сек (1536 spf)
Метод сжатия : С потерями
Размер потока : 308 Мбайт (8%)
Default : Да
Forced : Нет

pb.wtf



Скачать Баллада о Лефти Брауне через торрент http://a.radikal.ru/a28/1801/a2/a3dfd51e9696.jpg Скачать фильм Баллада о Лефти Брауне через торрент бесплантно в хорошем качестве Описание: Пожилые приятели Лефти Браун и Эдди Джонсон всю свою жизнь работали вместе. Внезапное убийство Эдди вынуждают Лефти выйти из тени ... 10 10 2
Торрент: Зарегистрирован [2018-01-23 16:32] · скачан: 94 раз
Статус: T временная
Размер: 3.9 GB
Как cкачать? Как скачать Баллада о Лефти Брауне через торрент | qTorrent

% Раздел Тема Автор DL S | L
Фильмы с авторской озвучкой [ 2.18 GB ] Баллада о Лефти Брауне / The Ballad of Lefty Brown [2017 BDRip-AVC от NNNB] AVO + Original + Sub _denis_100 Скачать
1 | 0
T Фильмы (мультфильмы) cо спонсором показа (Новинки AVI/MKV) [ 1.42 GB ] Баллада о Лефти Брауне / The Ballad of Lefty Brown [2017 WEB-DLRip] MVO [GreenРай Studio] bober100 Скачать
1 | 0
T Фильмы (мультфильмы) cо спонсором показа (Новинки AVI/MKV) [ 3.49 GB ] Баллада о Лефти Брауне / The Ballad of Lefty Brown [2017 WEB-DL 720p] MVO [@MUZOBOZ@] bober100 Скачать
1 | 0
T Фильмы (мультфильмы) cо спонсором показа (Новинки AVI/MKV) [ 4.12 GB ] Баллада о Лефти Брауне / The Ballad of Lefty Brown [2017 WEB-DL 1080p] MVO [@MUZOBOZ@] bober100 Скачать
1 | 0
T Фильмы (мультфильмы) cо спонсором показа (Новинки AVI/MKV) [ 1.46 GB ] Баллада о Лефти Брауне / The Ballad of Lefty Brown [2017 WEB-DLRip] MVO [@MUZOBOZ@] bober100 Скачать
1 | 0

28-11-2019 20:33  

Отключить всю рекламу на сайте


    Дорогой пользователь! Огромная просьба, поблагодарите релизера, оцените раздачу и оставьте свои комментарий, если Вы скачали Баллада о Лефти Брауне через торрент бесплатно! Внесите свою лепту в развитие PiratBit!
    Комментировать посты могут только пользователи прошедшие не сложную регистрацию
    Показать сообщения:    

    Баллада о Лефти Брауне через торрент
    Скачать бесплатно Баллада о Лефти Брауне
    Баллада о Лефти Брауне скачать торрент
    Баллада о Лефти Брауне смотреть онлайн
    Cкачать фильм Баллада о Лефти Брауне бесплатно
    Баллада о Лефти Брауне скачать торрент в хорошем качестве
    Баллада о Лефти Брауне смотреть онлайн бесплатно в хорошем качестве


    Вы не можете начинать темы
    Вы не можете отвечать на сообщения
    Вы не можете редактировать свои сообщения
    Вы не можете удалять свои сообщения
    Вы не можете голосовать в опросах
    Вы не можете прикреплять файлы к сообщениям
    Вы можете скачивать файлы