Мега распродажа FORZA HORIZON 4 ULTIMATE+ВСЕ DLC+ОНЛАЙН всего за 499р. 349 руб. (супер цена). Внимание количество ограничено!!!

iTunes

1+1

iTunes

мы

iTunes

1

1 сезон

Чернобыль

1 сезон

Ральф против интернета

Лицензия

ПШазам

8 сезон

Игра престолов

Лицензия

30
pack

ВАЖНО

!!Акция!!

Alien_RageХит недели

RePack

Resident Evil 21

ИГРА 18+

pack

RePack

Metro:Exodus

!!Акция!!

Alien_Rage

RePack

fifa19

RePack

Assassins Creed: Odyssey

RePack

NEED FOR SPEED™ PAYBACK

3 сезон

9 сезон

Бесстыжие 9 сезон

Все сериалы

все сериалы на PB.wtf

RePack

FAR CRY 5
Ребята, катастрофически не хватает 2730р. для оплаты серверов за ИЮНЬ (всвязи с блокировками трафик упал в 3 раза), 1-2р., выручайте.
  

Дыра в голове / A Hole in the Head (Фрэнк Капра) [1959 г., комедия, BDRip] MVO pb.wtf

Дыра в голове через торрент pb.wtf

Размер: 1.45 GB | Добавлен: 1 год 5 мес. назад | Торрент скачан:5 раз
Скачать  

23-01-2018 17:14 Дыра в голове Скачать торрент  

Дыра в голове / A Hole in the Head
Год выпуска: 1959
Страна: США
Жанр: комедия
Продолжительность: 02:00:04
Перевод: Профессиональный многоголосый (ТРК Петербург – 5-й канал)

Режиссер: Фрэнк Капра

rating

В ролях: Фрэнк Синатра, Эдвард Дж. Робинсонн, Элинор Паркер, Кэролин Джонс, Тельма Риттер, Кинэн Уинн, Джой Ленсинг, Конни Сойер, Джимми Комак, Даб Тейлор, Джордж Девитт, Бенни Рубин, Руби Дендридж, Эдди Ходжес

Описание: Вдовец Тони живёт со своим сыном в собственном отеле, который вот-вот будет у него отобран за долги. Уже в который раз Тони строит грандиозные планы, разоряется, и, кажется, снова ему придётся занимать деньги у старшего брата.

Качество: BDRip (A.Hole.in.the.Head.1959.1080p.BDRemux)
Формат: AVI
Видео: XviD, 1528 Кбит/с, 720x304, 23.976 Кадр/с
Аудио: АС3, 2 ch, 192 Кбит/с
Релиз от: Koenig
скриншот   скриншот   скриншот   скриншот   скриншот   скриншот  

Общее
Полное имя : A.Hole.in.the.Head.1959.BDRip.avi
Формат : AVI
Формат/Информация : Audio Video Interleave
Размер файла : 1,45 Гбайт
Продолжительность : 2 ч. 0 м.
Общий поток : 1729 Кбит/сек
Программа кодирования : VirtualDubMod 1.5.10.2 (build 2540/release)
Библиотека кодирования : VirtualDubMod build 2540/release

Видео
Идентификатор : 0
Формат : MPEG-4 Visual
Профиль формата : Advanced Simple@L5
Параметр BVOP формата : 1
Параметр QPel формата : Нет
Параметр GMC формата : Без точки перехода
Параметр матрицы формата : Выборочная
Идентификатор кодека : XVID
Идентификатор кодека/Подсказка : XviD
Продолжительность : 2 ч. 0 м.
Битрейт : 1528 Кбит/сек
Ширина : 720 пикселей
Высота : 304 пикселя
Соотношение сторон : 2,35:1
Частота кадров : 23,976 (24000/1001) кадра/сек
Цветовое пространство : YUV
Субдискретизация насыщенности : 4:2:0
Битовая глубина : 8 бит
Тип развёртки : Прогрессивная
Метод сжатия : С потерями
Бит/(Пиксели*Кадры) : 0.291
Размер потока : 1,28 Гбайт (88%)
Библиотека кодирования : XviD 65

Аудио
Идентификатор : 1
Формат : AC-3
Формат/Информация : Audio Coding 3
Параметр Endianness формата : Big
Идентификатор кодека : 2000
Продолжительность : 2 ч. 0 м.
Вид битрейта : Постоянный
Битрейт : 192 Кбит/сек
Каналы : 2 канала
Расположение каналов : Front: L R
Частота : 48,0 КГц
Частота кадров : 31,250 кадров/сек (1536 spf)
Битовая глубина : 16 бит
Метод сжатия : С потерями
Размер потока : 165 Мбайт (11%)
Выравнивание : Разделение по промежуткам
Продолжительность промежутка : 42 мс. (1,00 видеокадр)
Время предзагрузки промежутка : 500 мс.
ServiceKind/String : Complete Main

pb.wtf



Скачать Дыра в голове через торрент http://img12.lostpic.net/2018/01/23/3c39f8391f66656f77d3ae66bc962f08.jpg Скачать фильм Дыра в голове через торрент бесплантно в хорошем качестве Описание: Вдовец Тони живёт со своим сыном в собственном отеле, который вот-вот будет у него отобран за долги. Уже в который раз Тони ... 5 10 1
Info! Золотая раздача, скачанное не засчитывается.
Торрент: Зарегистрирован [2018-01-23 17:14] · скачан: 5 раз
Статус: √ проверено
Размер: 1.45 GB
Как cкачать? Как скачать Дыра в голове через торрент | qTorrent


>> Регистрируемся здесь <<






Отзывы и комментарии о схеме читаем и пишем здесь: ---> Отзывы и комментарии о схеме

Новые благодарочки в телеграм довольных пользователей:
скриншот   скриншот   скриншот   скриншот   скриншот
    Дорогой пользователь! Огромная просьба, поблагодарите релизера, оцените раздачу и оставьте свои комментарий, если Вы скачали Дыра в голове через торрент бесплатно! Внесите свою лепту в развитие PiratBit!
    Комментировать посты могут только пользователи прошедшие не сложную регистрацию
    Показать сообщения:    

    Дыра в голове через торрент
    Скачать бесплатно Дыра в голове
    Дыра в голове скачать торрент
    Дыра в голове смотреть онлайн
    Cкачать фильм Дыра в голове бесплатно
    Дыра в голове скачать торрент в хорошем качестве
    Дыра в голове смотреть онлайн бесплатно в хорошем качестве


    Вы не можете начинать темы
    Вы не можете отвечать на сообщения
    Вы не можете редактировать свои сообщения
    Вы не можете удалять свои сообщения
    Вы не можете голосовать в опросах
    Вы не можете прикреплять файлы к сообщениям
    Вы можете скачивать файлы