Ссылка на приватное зеркало нашего сайта всего за 1$. Внимание количество ограничено!!!

2 сезон

iTunes

1 сезон

1

2 сезон

2 сезон

iTunes

1 сезон

RePack

30

Новинка

ВАЖНО

ИГРА 18+

pack

RePack

MK11
pack

Забери бонус

RePack

jed

!!Акция!!

Alien_Rage

RePack

fifa19

RePack

Assassins Creed: Odyssey

RePack

NEED FOR SPEED™ PAYBACK

4 сезон

9 сезон

Бесстыжие 9 сезон

Все сериалы

все сериалы на PB.wtf

RePack

FAR CRY 5
  

Мозаика / Mosaic / Сезон: 1 / Серия: 1-6 из 6 (Стивен Содерберг) [2018, драма, HDTVRip 1080p] MVO [Амедиа] pb.wtf

Мозаика через торрент pb.wtf

Размер: 13.05 GB | Добавлен: 1 год 7 мес. назад | Торрент скачан:5 раз
Скачать  

23-01-2018 18:16 Мозаика Скачать торрент  

Мозаика / Mosaic Год выпуска: 2018
Страна: США
Жанр: драма
Продолжительность: ~ 00:50:00
Перевод: Профессиональный многоголосый | Амедиа
Субтитры: отсутствуют

Режиссер: Стивен Содерберг

rating


В ролях:

Девин Рэтрей, Майя Кэзан, Джеймс Рэнсон, Зэнди Хартиг, Пол Рубенс, Эллисон Толман, Фред Уэллер, Брэндон Рэй Олив, Джереми Бобб

Описание:

В центре сюжета — история убийства детской писательницы Оливии Лэйк (Шэрон Стоун). При помощи мобильного приложения каждый зритель сможет сам выбрать персонажа, с чьей точки зрения он будет следить за сюжетом. Каждый выбор будет напрямую влиять на развитие сюжета вплоть до различных концовок в зависимости от алгоритма действий зрителя.

Качество: HDTVRip 1080p
Формат: MKV

Видео: 1920х1080 at 25.000 fps, MPEG-4 AVC, ~6000 kbps avg
Аудио Russian: 48 kHz, AC3, 3/2 (L,C,R,l,r) + LFE ch, ~384 kbps avg |Многоголосый закадровый, Amedia|
Аудио English: 48 kHz, AC3, 2/0 (L,R) ch, ~192 kbps avg
скриншот  скриншот  скриншот  скриншот  

Полное имя : E:\Mosaic.2018.E01.HDTV-Rip.1080p.x264.Rus.Eng.AC3.mkv
Формат : Matroska
Версия формата : Version 4 / Version 2
Размер файла : 2,15 Гбайт
Продолжительность : 47 м. 28 с.
Общий поток : 6478 Кбит/сек
Дата кодирования : UTC 2018-01-23T20:56:55Z
Программа кодирования : HandBrake 1.0.7 2017040900
Библиотека кодирования : Lavf57.7.2

Видео
Идентификатор : 1
Формат : AVC
Формат/Информация : Advanced Video Codec
Профиль формата : High@L4
Настройки формата : CABAC / 4 Ref Frames
Параметр CABAC формата : Да
Параметр RefFrames формата : 4 кадра
Идентификатор кодека : V_MPEG4/ISO/AVC
Продолжительность : 47 м. 28 с.
Битрейт : 6000 Кбит/сек
Ширина : 1920 пикселей
Высота : 1080 пикселей
Соотношение сторон : 16:9
Режим частоты кадров : Постоянный
Частота кадров : 25,000 кадров/сек
Цветовое пространство : YUV
Субдискретизация насыщенности : 4:2:0
Битовая глубина : 8 бит
Тип развёртки : Прогрессивная
Бит/(Пиксели*Кадры) : 0.116
Размер потока : 1,91 Гбайт (89%)
Библиотека кодирования : x264 core 148 r2708 86b7198
Настройки программы : cabac=1 / ref=4 / deblock=1:0:0 / analyse=0x3:0x133 / me=hex / subme=8 / psy=1 / psy_rd=1.00:0.00 / mixed_ref=1 / me_range=16 / chroma_me=1 / trellis=2 / 8x8dct=1 / cqm=0 / deadzone=21,11 / fast_pskip=1 / chroma_qp_offset=-2 / threads=6 / lookahead_threads=1 / sliced_threads=0 / nr=0 / decimate=1 / interlaced=0 / bluray_compat=0 / constrained_intra=0 / bframes=3 / b_pyramid=2 / b_adapt=2 / b_bias=0 / direct=1 / weightb=1 / open_gop=0 / weightp=2 / keyint=250 / keyint_min=25 / scenecut=40 / intra_refresh=0 / rc_lookahead=40 / rc=abr / mbtree=1 / bitrate=6000 / ratetol=1.0 / qcomp=0.60 / qpmin=0 / qpmax=69 / qpstep=4 / ip_ratio=1.40 / aq=1:1.00
Default : Да
Forced : Нет
Цветовой диапазон : Limited
Основные цвета : BT.709
Характеристики трансфера : BT.709
Коэффициенты матрицы : BT.709

Аудио #1
Идентификатор : 2
Формат : AC-3
Формат/Информация : Audio Coding 3
Идентификатор кодека : A_AC3
Продолжительность : 47 м. 28 с.
Вид битрейта : Постоянный
Битрейт : 384 Кбит/сек
Каналы : 6 каналов
Расположение каналов : Front: L C R, Side: L R, LFE
Частота : 48,0 КГц
Частота кадров : 31,250 кадров/сек (1536 SPF)
Битовая глубина : 16 бит
Метод сжатия : С потерями
Задержка видео : 208 мс.
Размер потока : 130 Мбайт (6%)
Заголовок : Surround
Язык : Russian
ServiceKind/String : Complete Main
Default : Да
Forced : Нет

Аудио #2
Идентификатор : 3
Формат : AC-3
Формат/Информация : Audio Coding 3
Идентификатор кодека : A_AC3
Продолжительность : 47 м. 28 с.
Вид битрейта : Постоянный
Битрейт : 192 Кбит/сек
Каналы : 2 канала
Расположение каналов : Front: L R
Частота : 48,0 КГц
Частота кадров : 31,250 кадров/сек (1536 SPF)
Битовая глубина : 16 бит
Метод сжатия : С потерями
Задержка видео : 28 мс.
Размер потока : 65,2 Мбайт (3%)
Заголовок : Stereo
Язык : English
ServiceKind/String : Complete Main
Default : Нет
Forced : Нет

Когда раздача ведётся путём добавления новых серий, при каждом добавлении создётся новый торрент. Чтобы начать докачку новой серии, пользователям необходимо сделать следующее:
(1) остановить скачивание,
(2) удалить старый торрент у себя из клиента (старые серии удалять не надо),
(3) скачать новый торрент и запустить его у себя в клиенте вместо старого, при этом указать клиенту путь в старую папку, куда и должно происходить скачивание новых серий.
Ваш клиент при этом должен произвести хеширование (проверку) старой папки (если не производит сам - помогите ему сделать это), и будет докачивать только те серии, которых у вас ещё нет. Старые серии при этом не удаляются, а продолжают раздаваться!
Eсли вы уже удалили старые серии, то предотвратить повторную закачку старых серий можно, отжав галочку в соответсвующих местах при запуске нового торрента. По возможности, желательно не удалять старые серии как можно дольше, чтобы релизёр не столько продолжал раздавать старые серии, а смог сконцентрироваться на новых.
pb.wtf



Скачать Мозаика через торрент http://img12.lostpic.net/2018/01/23/94b390688953db5549dcd688dcab6611.jpg Скачать фильм Мозаика через торрент бесплантно в хорошем качестве Описание: В центре сюжета — история убийства детской писательницы Оливии Лэйк (Шэрон Стоун). При помощи мобильного приложения каждый ... 10 10 3
Торрент: Зарегистрирован [2019-04-03 08:32] · скачан: 5 раз
Статус: √ проверено
Размер: 13.05 GB
Как cкачать? Как скачать Мозаика через торрент | qTorrent

% Раздел Тема Автор DL S | L
Зарубежные сериалы [ 5.68 GB ] Мозаика / Mosaic / Сезон: 1 / Серии: 1-6 из 6 [2018 WEB-DL 720p] MVO [Amedia] bober100 Скачать
1 | 0
Зарубежные сериалы [ 13.6 GB ] Мозаика / Mosaic / Сезон: 1 / Серии: 1-6 из 6 [2018 WEBRip 1080p] MVO [Jaskier] bober100 Скачать
1 | 0
Зарубежные сериалы [ 5.82 GB ] Мозаика / Mosaic / Сезон: 1 / Серии: 1-6 из 6 [2018 WEBRip 720p] MVO [Jaskier] bober100 Скачать
1 | 0
Зарубежные сериалы [ 3.7 GB ] Мозаика / Mosaic / Сезон: 1 / Серии: 1-6 из 6 [2018 WEBRip] MVO [Jaskier] bober100 Скачать
1 | 0
Зарубежные сериалы [ 6.37 GB ] Мозаика / Mosaic / Сезон: 1 / Серия: 1-6 из 6 [2018 WEB-DL 720p] MVO [AMS] bober100 Скачать
1 | 0
Зарубежные сериалы [ 3.71 GB ] Мозаика / Mosaic / Сезон: 1 / Серии: 1-6 из 6 [2018 WEB-DLRip] MVO [NewStudio] bober100 Скачать
1 | 0
Зарубежные сериалы [ 3.42 GB ] Мозаика / Mosaic / Сезон: 1 / Серии 1-6 из 6 [2018 WEBRip] MVO [BaibaKo] GEKADOL Скачать
1 | 0

28-11-2019 20:33  

Отключить всю рекламу на сайте

    Дорогой пользователь! Огромная просьба, поблагодарите релизера, оцените раздачу и оставьте свои комментарий, если Вы скачали Мозаика через торрент бесплатно! Внесите свою лепту в развитие PiratBit!
    Комментировать посты могут только пользователи прошедшие не сложную регистрацию
    Показать сообщения:    

    Мозаика через торрент
    Скачать бесплатно Мозаика
    Мозаика скачать торрент
    Мозаика смотреть онлайн
    Cкачать фильм Мозаика бесплатно
    Мозаика скачать торрент в хорошем качестве
    Мозаика смотреть онлайн бесплатно в хорошем качестве


    Вы не можете начинать темы
    Вы не можете отвечать на сообщения
    Вы не можете редактировать свои сообщения
    Вы не можете удалять свои сообщения
    Вы не можете голосовать в опросах
    Вы не можете прикреплять файлы к сообщениям
    Вы можете скачивать файлы