Ссылка на приватное зеркало нашего сайта всего за 1$. Внимание количество ограничено!!!

2 сезон

iTunes

1 сезон

1

2 сезон

2 сезон

iTunes

1 сезон

RePack

30

Ultimate

ВАЖНО

ИГРА 18+

pack

RePack

MK11
pack

Забери бонус

RePack

jed

!!Акция!!

Alien_Rage

RePack

fifa19

RePack

Assassins Creed: Odyssey

RePack

NEED FOR SPEED™ PAYBACK

4 сезон

9 сезон

Бесстыжие 9 сезон

Все сериалы

все сериалы на PB.wtf

RePack

FAR CRY 5
  

Алиенист / The Alienist / Сезон: 1 / Серии: 1-10 из 10 (Якоб Вербрюгген, Пако Кабесас, Джеймс Хоуз) [2018, Драма, детектив, WEBRip 720p] MVO [AMS] pb.wtf

Алиенист через торрент pb.wtf

Размер: 10.87 GB | Добавлен: 1 год 4 мес. назад | Торрент скачан:4 раза
Скачать  

23-01-2018 18:50 Алиенист Скачать торрент  

Алиенист / The Alienist Год выпуска: 2018
Страна: США
Жанр: Драма, детектив
Продолжительность: ~ 00:55:00
Перевод: Профессиональный (многоголосый закадровый) | AMS
Субтитры: Английские (Softsub SRT)

Режиссёр: Якоб Вербрюгген, Пако Кабесас, Джеймс Хоуз

rating

В ролях: Даниэль Брюль, Люк Эванс, Брайан Джерати, Роберт Уиздом, Дуглас Смит, Мэттью Шир, К’Орианка Килчер, Мэттью Линтц, Дакота Фаннинг, Дэвид Уилмот и другие

Описание: В конце XIX века, в 1896 году, Нью-Йорк потрясает серия жестоких убийств: в городских трущобах убивают детей, с каждым разом все более и более изощренно — будто исполняется какой-то кровавый ритуал. Расследование ведет яркая команда: будущий президент, а пока комиссар полиции Теодор Рузвельт, выдающийся психолог-алиенист (изучает умственные патологии) Ласло Крайцлер и репортер уголовной хроники Джон Скайлер Мур.

Качество: WEBRip 720p
Контейнер: MKV

Видео: AVC, 1280x720 (16:9), 23.976 fps, ~2000-4500 kbps, 0.100-0.185 bit/pixel
Аудио 1: Русский, AC3, 48 KHz, 6 channels, 640 kbps
Аудио 2: Английский, AC3, 48 KHz, 6 channels, 640 kbps


Реклама: Присутствует звуковая (два раза: в начале и конце по 12 сек)
General
Unique ID : 124675442599083794373937897051502231238 (0x5DCB9DE81EE5F94B32329CFC1AA13EC6)
Complete name : /The.Alienist.S01.720p.WEB-DL.AMS/The.Alienist.S01E01.720p.WEB-DL.AMS.mkv
Format : Matroska
Format version : Version 4 / Version 2
File size : 1.10 GiB
Duration : 48mn 15s
Overall bit rate mode : Variable
Overall bit rate : 3 258 Kbps
Encoded date : UTC 2018-01-01 23:59:59
Writing application : mkvmerge v8.2.0 ('World of Adventure') 64bit
Writing library : libebml v1.3.1 + libmatroska v1.4.2

Video
ID : 1
Format : AVC
Format/Info : Advanced Video Codec
Format profile : High@L3.1
Format settings, CABAC : Yes
Format settings, ReFrames : 5 frames
Codec ID : V_MPEG4/ISO/AVC
Duration : 48mn 15s
Bit rate mode : Variable
Bit rate : 1 976 Kbps
Maximum bit rate : 4 500 Kbps
Width : 1 280 pixels
Height : 720 pixels
Display aspect ratio : 16:9
Frame rate mode : Constant
Frame rate : 23.976 (24000/1001) fps
Color space : YUV
Chroma subsampling : 4:2:0
Bit depth : 8 bits
Scan type : Progressive
Bits/(Pixel*Frame) : 0.089
Stream size : 682 MiB (61%)
Language : English
Default : Yes
Forced : No
Color range : Limited
Color primaries : BT.709
Transfer characteristics : BT.709
Matrix coefficients : BT.709

Audio #1
ID : 2
Format : AC-3
Format/Info : Audio Coding 3
Mode extension : CM (complete main)
Format settings, Endianness : Big
Codec ID : A_AC3
Duration : 48mn 15s
Bit rate mode : Constant
Bit rate : 640 Kbps
Channel(s) : 6 channels
Channel positions : Front: L C R, Side: L R, LFE
Sampling rate : 48.0 KHz
Frame rate : 31.250 fps (1536 spf)
Compression mode : Lossy
Stream size : 221 MiB (20%)
Language : Russian
Default : Yes
Forced : No

Audio #2
ID : 3
Format : E-AC-3
Format/Info : Audio Coding 3
Format settings, Endianness : Big
Codec ID : A_EAC3
Duration : 48mn 15s
Bit rate mode : Constant
Bit rate : 640 Kbps
Channel(s) : 6 channels
Channel positions : Front: L C R, Side: L R, LFE
Sampling rate : 48.0 KHz
Frame rate : 187.500 fps (256 spf)
Compression mode : Lossy
Stream size : 221 MiB (20%)
Language : English
Default : No
Forced : No

Text
ID : 4
Format : UTF-8
Codec ID : S_TEXT/UTF8
Codec ID/Info : UTF-8 Plain Text
Duration : 48mn 5s
Bit rate : 59 bps
Count of elements : 779
Stream size : 20.9 KiB (0%)
Language : English
Default : No
Forced : No
pb.wtf



Скачать Алиенист через торрент https://a.radikal.ru/a39/1804/9e/7521099a67d4.jpg Скачать фильм Алиенист через торрент бесплантно в хорошем качестве Описание: В конце XIX века, в 1896 году, Нью-Йорк потрясает серия жестоких убийств: в городских трущобах убивают детей, с каждым разом все ... 10 10 6
Торрент: Зарегистрирован [2019-07-12 06:52] · скачан: 4 раз
Статус: √ проверено
Размер: 10.87 GB
Как cкачать? Как скачать Алиенист через торрент | qTorrent

% Раздел Тема Автор DL S | L
Зарубежные сериалы [ 29.1 GB ] Алиенист / The Alienist / Сезон 2 / Серия 1-8 из 8 [2020 WEB-DL 1080p] 5x[MVO] killermax2013 Скачать
1 | 0
Зарубежные сериалы [ 28.23 GB ] Алиенист / The Alienist / Сезон: 2 / Серии: 1-8 из 8 [2020 WEB-DL 1080p] 3xMVO [AlexFilm LostFilm NewStudio] bober100 Скачать
3 | 0
Зарубежные сериалы [ 25.44 GB ] Алиенист / The Alienist / Сезон: 2 / Серии: 1-8 из 8 [2020 WEB-DL 1080p] MVO [AlexFilm] bober100 Скачать
1 | 0
Зарубежные сериалы [ 24.74 GB ] Алиенист / The Alienist / Сезон: 2 / Серии: 1-8 из 8 [2020 WEB-DL 1080p] MVO [Jaskier] bober100 Скачать
1 | 0
Зарубежные сериалы [ 24.07 GB ] Алиенист / The Alienist/ Сезон: 1 / Серии: 1-10 из 10 [2018 WEBRip 1080p] MVO [TVShows] bober100 Скачать
1 | 0
Зарубежные сериалы [ 19.12 GB ] Алиенист / The Alienist / Сезон: 1 / Серии: 1-10 из 10 [2018 WEB-DL 1080p] MVO [NewStudio] bober100 Скачать
1 | 0
Зарубежные сериалы [ 8.73 GB ] Алиенист / The Alienist / Сезон: 1 / Серии: 1-10 из 10 [2018 WEB-DLRip] MVO [LostFilm] bober100 Скачать
2 | 0


Последний раз редактировалось: bober100 (2019-07-12 06:52), всего редактировалось 2 раз(а)

28-11-2019 20:33  

Отключить всю рекламу на сайте

22-03-2018 15:02 Алиенист Скачать торрент  

bober100, Продолжение нет?pb.wtf



    Дорогой пользователь! Огромная просьба, поблагодарите релизера, оцените раздачу и оставьте свои комментарий, если Вы скачали Алиенист через торрент бесплатно! Внесите свою лепту в развитие PiratBit!
    Комментировать посты могут только пользователи прошедшие не сложную регистрацию
    Показать сообщения:    

    Алиенист через торрент
    Скачать бесплатно Алиенист
    Алиенист скачать торрент
    Алиенист смотреть онлайн
    Cкачать фильм Алиенист бесплатно
    Алиенист скачать торрент в хорошем качестве
    Алиенист смотреть онлайн бесплатно в хорошем качестве


    Вы не можете начинать темы
    Вы не можете отвечать на сообщения
    Вы не можете редактировать свои сообщения
    Вы не можете удалять свои сообщения
    Вы не можете голосовать в опросах
    Вы не можете прикреплять файлы к сообщениям
    Вы можете скачивать файлы