Ссылка на приватное зеркало всего за 1$. Внимание количество ограничено!!!

OK

1+1

iTunes

мы

OK

1

WEB-DLRip

Джокер

Пифагор

Ведьмак / The Witcher сериал

iTunes

ПШазам

ОК

Оно 2

iTunes

30
pack

Вам бонус

ВАЖНО

!!Акция!!

Alien_RageХит недели

RePack

Resident Evil 21

ИГРА 18+

pack

RePack

jed

RePack

fifa19

RePack

Assassins Creed: Odyssey

RePack

NEED FOR SPEED™ PAYBACK

4 сезон

9 сезон

Бесстыжие 9 сезон

Все сериалы

все сериалы на PB.wtf

RePack

FAR CRY 5
  

Обреченные / Destined (Гасым Басир) [2016, фэнтези, драма, WEB-DL 720p] MVO ["Синема УС"] pb.wtf

Обреченные через торрент pb.wtf

Размер: 2.89 GB | Добавлен: 2 года назад | Торрент скачан:25 раз
Скачать  

23-01-2018 20:45 Обреченные Скачать торрент  

Обреченные / DestinedГод выпуска: 2016
Страна: США
Жанр: фэнтези, драма
Продолжительность: 01:33:14
Перевод: Любительский (многоголосый) ["Синема УС"]
Субтитры: отсутствуют

Режиссер: Гасым Басир

rating

В ролях:

Джейсон Доринг, Марго Бингхэм, Сулай Энао, Джесси Меткалф, Хилл Харпер, Ла Ла Васкес, Кори Хардрикт, Паула Девик, Роберт Кристофер Райли, Мо

Описание:

Фильм повествует об истории Шида и Рашида, которые увлечены идеей судьбы. Они убеждены, что даже самое маленькое событие может повлиять на дальнейшую жизнь.

Качество: WEB-DL 720p
Формат: MKV
Видео кодек: H.264
Аудио кодек: AC3

Видео: 4057 Кбит/с, 1280x542
Аудио#1: AC3, 2 ch, 384 Кбит/с

скриншот  скриншот  скриншот  

Общее
Уникальный идентификатор : 221778103453330380285778646838787793425 (0xA6D8E8B72C9E90F896D1737049416211)
Полное имя : D:\Destined.2016.P.WEB-DL.72Op_KOSHARA.mkv
Формат : Matroska
Версия формата : Version 2
Размер файла : 2,89 Гбайт
Продолжительность : 1 ч. 33 м.
Режим общего битрейта : Переменный
Общий поток : 4443 Кбит/сек
Дата кодирования : UTC 2018-01-17 15:13:52
Программа кодирования : mkvmerge v8.3.0 ('Over the Horizon') 64bit
Библиотека кодирования : libebml v1.3.1 + libmatroska v1.4.2

Видео
Идентификатор : 1
Формат : AVC
Формат/Информация : Advanced Video Codec
Профиль формата : High@L4.1
Параметр CABAC формата : Да
Параметр ReFrames формата : 12 кадров
Идентификатор кодека : V_MPEG4/ISO/AVC
Продолжительность : 1 ч. 33 м.
Вид битрейта : Переменный
Битрейт : 4057 Кбит/сек
Максимальный битрейт : 4500 Кбит/сек
Ширина : 1280 пикселей
Высота : 542 пикселя
Соотношение сторон : 2,35:1
Режим частоты кадров : Постоянный
Частота кадров : 23,976 (24000/1001) кадра/сек
Стандарт вещания : Component
Цветовое пространство : YUV
Субдискретизация насыщенности : 4:2:0
Битовая глубина : 8 бит
Тип развёртки : Прогрессивная
Бит/(Пиксели*Кадры) : 0.239
Размер потока : 2,59 Гбайт (89%)
Default : Да
Forced : Нет
Цветовой диапазон : Limited
Основные цвета : BT.709
Характеристики трансфера : BT.709
Коэффициенты матрицы : BT.709

Аудио
Идентификатор : 2
Формат : AC-3
Формат/Информация : Audio Coding 3
Расширение режима : CM (complete main)
Параметр Endianness формата : Big
Идентификатор кодека : A_AC3
Продолжительность : 1 ч. 33 м.
Вид битрейта : Постоянный
Битрейт : 384 Кбит/сек
Каналы : 2 канала
Расположение каналов : Front: L R
Частота : 48,0 КГц
Частота кадров : 31,250 кадров/сек (1536 spf)
Метод сжатия : С потерями
Размер потока : 256 Мбайт (9%)
Default : Да
Forced : Нет

pb.wtf



Скачать Обреченные через торрент http://img12.lostpic.net/2018/01/23/fdfcc6ce8edf7b0ec88eb92ec95a9574.jpg Скачать фильм Обреченные через торрент бесплантно в хорошем качестве Описание: Фильм повествует об истории Шида и Рашида, которые увлечены идеей судьбы. Они убеждены, что даже самое маленькое событие может ... 7.8 10 4
Торрент: Зарегистрирован [2018-01-23 20:45] · скачан: 25 раз
Статус: T временная
Размер: 2.89 GB
Как cкачать? Как скачать Обреченные через торрент | qTorrent

% Раздел Тема Автор DL S | L
T Фильмы (мультфильмы) cо спонсором показа (Новинки AVI/MKV) [ 1.37 GB ] Обреченные / Destined [2016 WEB-DLRip] MVO ["Синема УС"] bober100 Скачать
1 | 0

28-11-2019 20:33  

Отключить всю рекламу на сайте


    Дорогой пользователь! Огромная просьба, поблагодарите релизера, оцените раздачу и оставьте свои комментарий, если Вы скачали Обреченные через торрент бесплатно! Внесите свою лепту в развитие PiratBit!
    Комментировать посты могут только пользователи прошедшие не сложную регистрацию
    Показать сообщения:    

    Обреченные через торрент
    Скачать бесплатно Обреченные
    Обреченные скачать торрент
    Обреченные смотреть онлайн
    Cкачать фильм Обреченные бесплатно
    Обреченные скачать торрент в хорошем качестве
    Обреченные смотреть онлайн бесплатно в хорошем качестве


    Вы не можете начинать темы
    Вы не можете отвечать на сообщения
    Вы не можете редактировать свои сообщения
    Вы не можете удалять свои сообщения
    Вы не можете голосовать в опросах
    Вы не можете прикреплять файлы к сообщениям
    Вы можете скачивать файлы