Ссылка на приватное зеркало нашего сайта всего за 1$. Внимание количество ограничено!!!

2 сезон

iTunes

1 сезон

1

2 сезон

2 сезон

iTunes

1 сезон

RePack

30

Ultimate

ВАЖНО

ИГРА 18+

pack

RePack

MK11
pack

Забери бонус

RePack

jed

!!Акция!!

Alien_Rage

RePack

fifa19

RePack

Assassins Creed: Odyssey

RePack

NEED FOR SPEED™ PAYBACK

4 сезон

9 сезон

Бесстыжие 9 сезон

Все сериалы

все сериалы на PB.wtf

RePack

FAR CRY 5
  

Мозаика / Mosaic / Сезон: 1 / Серии 1-6 из 6 (Стивен Содерберг) [2018, США, драма, WEBRip] MVO [BaibaKo] pb.wtf

Мозаика через торрент pb.wtf

Размер: 3.42 GB | Добавлен: 2 года 10 мес. назад | Торрент скачан:45 раз
Скачать  

24-01-2018 01:16 Мозаика Скачать торрент  

Мозаика /Mosaic


  • Год выпуска: 2018
  • Страна: США
  • Жанр: драма
  • Продолжительность: ~ 00:50:00 (Серия)
  • Перевод: Профессиональный многоголосый [BaibaKo]
  • Режиссер: Стивен Содерберг
  • В ролях:
    Девин Рэтрей, Майя Кэзан, Джеймс Рэнсон, Зэнди Хартиг, Пол Рубенс, Эллисон Толман, Фред Уэллер, Брэндон Рэй Олив, Джереми Бобб



  • В центре сюжета — история убийства детской писательницы Оливии Лэйк (Шэрон Стоун). При помощи мобильного приложения каждый зритель сможет сам выбрать персонажа, с чьей точки зрения он будет следить за сюжетом. Каждый выбор будет напрямую влиять на развитие сюжета вплоть до различных концовок в зависимости от алгоритма действий зрителя.
  • Рейтинг:

    rating
  • Качество: WEBRip
  • Формат: :AVI
  • Видео кодек: XviD
  • Аудио кодек: MP3
  • Видео: 1440 Кбит/сек, 720*400 (16:9), в 23,976 (24000/1001) кадра/сек, MPEG-4 Visual (XviD)
  • Аудио №1: русский 192 Кбит/сек, 48,0 КГц, 2 канала, MPEG Audio (MP3) |[BaibaKo]|
  • Релиз от: GEKADOL

    Внимание! Раздача ведётся путём добавления новых серий; при каждом добавлении создаётся новый торрент. Чтобы начать докачку новой серии, пользователям необходимо сделать следующее:
    (1) остановить скачивание,
    (2) удалить старый торрент у себя из клиента (старые серии удалять не надо),
    (3) скачать новый торрент и запустить его у себя в клиенте вместо старого, при этом указать клиенту путь в старую папку куда и должно происходить скачивание новых серий.
    Ваш клиент при этом должен произвести хеширование (проверку) старой папки (если не производит сам - помогите ему сделать это), и будет докачивать только те серии которых у вас ещё нет. Старые серии при этом не удаляются, а продолжают раздаваться!
    Eсли вы уже удалили старые серии, то предотвратить повторную закачку старых серий можно, отжав галочку в соответствующих местах при запуске нового торрента. По возможности, желательно не удалять старые серии как можно дольше чтобы релизёр не столько продолжал раздавать старые серии, а смог сконцентрироваться на новых.
    Общее
    Полное имя : F:\Мозаика (Mosaic)\Mosaic.s01e01.WEBRip.XviD.Rus.Eng.BaibaKo.tv.avi
    Формат : AVI
    Формат/Информация : Audio Video Interleave
    Размер файла : 559 Мбайт
    Продолжительность : 47 м. 35 с.
    Общий поток : 1641 Кбит/сек
    Библиотека кодирования : Boilsoft AVI tool build 30012/release

    Видео
    Идентификатор : 0
    Формат : MPEG-4 Visual
    Профиль формата : Advanced Simple@L5
    Настройки формата : BVOP2
    Параметр BVOP формата : 2
    Параметр QPel формата : Нет
    Параметр GMC формата : Без точки перехода
    Параметр матрицы формата : Default (H.263)
    Идентификатор кодека : XVID
    Идентификатор кодека/Подсказка : XviD
    Продолжительность : 47 м. 35 с.
    Битрейт : 1440 Кбит/сек
    Ширина : 720 пикселей
    Высота : 400 пикселей
    Соотношение сторон : 16:9
    Частота кадров : 23,976 (24000/1001) кадра/сек
    Цветовое пространство : YUV
    Субдискретизация насыщенности : 4:2:0
    Битовая глубина : 8 бит
    Тип развёртки : Прогрессивная
    Метод сжатия : С потерями
    Бит/(Пиксели*Кадры) : 0.209
    Размер потока : 490 Мбайт (88%)
    Библиотека кодирования : XviD 67

    Аудио
    Идентификатор : 1
    Формат : MPEG Audio
    Версия формата : Version 1
    Профиль формата : Layer 3
    Настройки формата : Joint stereo / MS Stereo
    Идентификатор кодека : 55
    Идентификатор кодека/Подсказка : MP3
    Продолжительность : 47 м. 35 с.
    Вид битрейта : Постоянный
    Битрейт : 192 Кбит/сек
    Каналы : 2 канала
    Частота : 48,0 КГц
    Метод сжатия : С потерями
    Задержка видео : 22 мс.
    Размер потока : 65,4 Мбайт (12%)
    Выравнивание : Разделение по промежуткам
    Продолжительность промежутка : 42 мс. (1,00 видеокадр)
    Время предзагрузки промежутка : 500 мс.
    Библиотека кодирования : LAME3.99.5



    Скриншоты:
    скриншот   скриншот   скриншот   скриншот   скриншот   скриншот   скриншот  
    скриншот  

    Раздача ведётся путём добавления новых серий. Добавлена 4-6 серия (29.01.2018).Просьба перекачать торрент файл.

    pb.wtf



  • Скачать Мозаика через торрент http://pic1.kartinco.top/images/11/dnsw4.jpg Скачать фильм Мозаика через торрент бесплантно в хорошем качестве qw.png В центре сюжета — история убийства детской писательницы Оливии Лэйк (Шэрон Стоун). При помощи мобильного приложения каждый зритель ... 10 10 3
    Info! Золотая раздача, скачанное не засчитывается.
    Торрент: Зарегистрирован [2018-01-29 01:10] · скачан: 45 раз
    Статус: √ проверено
    Размер: 3.42 GB
    Как cкачать? Как скачать Мозаика через торрент | qTorrent

    % Раздел Тема Автор DL S | L
    Зарубежные сериалы [ 5.68 GB ] Мозаика / Mosaic / Сезон: 1 / Серии: 1-6 из 6 [2018 WEB-DL 720p] MVO [Amedia] bober100 Скачать
    1 | 0
    Зарубежные сериалы [ 13.6 GB ] Мозаика / Mosaic / Сезон: 1 / Серии: 1-6 из 6 [2018 WEBRip 1080p] MVO [Jaskier] bober100 Скачать
    1 | 0
    Зарубежные сериалы [ 5.82 GB ] Мозаика / Mosaic / Сезон: 1 / Серии: 1-6 из 6 [2018 WEBRip 720p] MVO [Jaskier] bober100 Скачать
    1 | 0
    Зарубежные сериалы [ 3.7 GB ] Мозаика / Mosaic / Сезон: 1 / Серии: 1-6 из 6 [2018 WEBRip] MVO [Jaskier] bober100 Скачать
    1 | 0
    Зарубежные сериалы [ 6.37 GB ] Мозаика / Mosaic / Сезон: 1 / Серия: 1-6 из 6 [2018 WEB-DL 720p] MVO [AMS] bober100 Скачать
    1 | 0
    Зарубежные сериалы [ 3.71 GB ] Мозаика / Mosaic / Сезон: 1 / Серии: 1-6 из 6 [2018 WEB-DLRip] MVO [NewStudio] bober100 Скачать
    1 | 0
    Зарубежные сериалы [ 13.05 GB ] Мозаика / Mosaic / Сезон: 1 / Серия: 1-6 из 6 [2018 HDTVRip 1080p] MVO [Амедиа] bober100 Скачать
    1 | 0

    28-11-2019 20:33  

    Отключить всю рекламу на сайте

      Дорогой пользователь! Огромная просьба, поблагодарите релизера, оцените раздачу и оставьте свои комментарий, если Вы скачали Мозаика через торрент бесплатно! Внесите свою лепту в развитие PiratBit!
      Комментировать посты могут только пользователи прошедшие не сложную регистрацию
      Показать сообщения:    

      Мозаика через торрент
      Скачать бесплатно Мозаика
      Мозаика скачать торрент
      Мозаика смотреть онлайн
      Cкачать фильм Мозаика бесплатно
      Мозаика скачать торрент в хорошем качестве
      Мозаика смотреть онлайн бесплатно в хорошем качестве


      Вы не можете начинать темы
      Вы не можете отвечать на сообщения
      Вы не можете редактировать свои сообщения
      Вы не можете удалять свои сообщения
      Вы не можете голосовать в опросах
      Вы не можете прикреплять файлы к сообщениям
      Вы можете скачивать файлы