2 сезон

iTunes

MVO

1

2 сезон

iTunes

iTunes

1 сезон

RePack

30

Ultimate

ВАЖНО

ИГРА 18+

pack

RePack

MK11
pack

Легкие деньги

RePack

jed

RePack

fifa19

RePack

RDR2

RePack

NEED FOR SPEED™ PAYBACK

4 сезон

9 сезон

Бесстыжие 9 сезон

Все сериалы

все сериалы на PB.wtf

RePack

FAR CRY 5

Anonymous, доброе утро, мы не успеваем собрать деньги на оплату серверов за декабрь и январь, помогите нам пожалуйста в это трудное время. В качестве благодарности мы отключим Вам всю рекламу на сайте (укажите свой ник в строку Ваше имя)!

×
  
Magnet ссылка

Субурбикон / Suburbicon (Джордж Клуни) [2017, Триллер, драма, криминал, детектив, WEB-DLRip-AVC] DUB [iTunes] - ExKinoRay pb.wtf

Субурбикон через торрент pb.wtf

Раздают: 3 [ 0 KB/s ]
Размер: 1.38 GB | Добавлен: 2 года 11 мес. назад | Торрент скачан:2652 раза
Скачать  

24-01-2018 02:03 Субурбикон Скачать торрент  

Информация о фильме
Название: Субурбикон
Оригинальное название: Suburbicon
Год выхода: 2017
Жанр: Триллер, драма, криминал, детектив
Страна: Великобритания, США
Студия: Black Bear Pictures
Продолжительность: 01:44:10
Перевод: Дублированный | iTunes (Студия Novamedia)
Режиссер: Джордж Клуни
В ролях: Мэтт Дэймон, Джулианна Мур, Оскар Айзек, Ноа Джуп, Гленн Флешлер, Меган Фергюсон, Джек Конли, Гэри Басараба, Майкл Коэн, Стив Монро

Описание:
Добро пожаловать в солнечный Субурбикон! В прекрасный тихий городок в самом сердце Америки. Счастливые семьи. Недорогие миленькие дома. Ухоженные газоны. Воплощение американской мечты. Чудесную жизнь городка внезапно прерывает шокирующее, из ряда вон выходящее событие — образцовая семья переживает вторжение в их семейное гнёздышко. Это событие толкает на худшие поступки в их идиллической жизни — шантаж, месть и предательство.

rating

Файл
Формат: MKV
Качество: WEB-DLRip-AVC
Видео: MPEG-4 AVC, 1024x428 (2.40:1), 24.000 fps, ~1517 kbps avg, 0.144 bit/pixel
Звук: AC3, 48.0 KHz, 5.1 ch, 384 kbps
General
Unique ID : 212822148030685442850259366189715776800 (0xA01C0E058B89845F8BCB12150C096520)
Complete name : D:\Suburbicon.2017.WEB-DLRip.AVC.ExKinoRay.mkv
Format : Matroska
Format version : Version 2
File size : 1.38 GiB
Duration : 1 h 44 min
Overall bit rate : 1 902 kb/s
Movie name : Suburbicon 2017 from ExKinoRay
Encoded date : UTC 2018-01-24 00:32:53
Writing application : mkvmerge v5.6.0 ('Kenya Kane') built on May 27 2012 16:44:04
Writing library : libebml v1.2.3 + libmatroska v1.3.0

Video
ID : 1
Format : AVC
Format/Info : Advanced Video Codec
Format profile : High@L4.1
Format settings, CABAC : Yes
Format settings, ReFrames : 10 frames
Codec ID : V_MPEG4/ISO/AVC
Duration : 1 h 44 min
Bit rate : 1 517 kb/s
Width : 1 024 pixels
Height : 428 pixels
Display aspect ratio : 2.40:1
Frame rate mode : Constant
Frame rate : 24.000 FPS
Color space : YUV
Chroma subsampling : 4:2:0
Bit depth : 8 bits
Scan type : Progressive
Bits/(Pixel*Frame) : 0.144
Stream size : 1.08 GiB (78%)
Title : Enigma
Writing library : x264 core 152 r2851 ba24899
Encoding settings : cabac=1 / ref=10 / deblock=1:-2:-2 / analyse=0x3:0x133 / me=umh / subme=10 / psy=1 / psy_rd=1.05:0.10 / mixed_ref=1 / me_range=32 / chroma_me=1 / trellis=2 / 8x8dct=1 / cqm=0 / deadzone=21,11 / fast_pskip=0 / chroma_qp_offset=-3 / threads=12 / lookahead_threads=3 / sliced_threads=0 / nr=0 / decimate=0 / interlaced=0 / bluray_compat=0 / constrained_intra=0 / bframes=10 / b_pyramid=2 / b_adapt=2 / b_bias=0 / direct=3 / weightb=1 / open_gop=0 / weightp=2 / keyint=240 / keyint_min=24 / scenecut=40 / intra_refresh=0 / rc_lookahead=40 / rc=2pass / mbtree=0 / bitrate=1517 / ratetol=1.0 / qcomp=0.60 / qpmin=0 / qpmax=51 / qpstep=4 / cplxblur=20.0 / qblur=0.5 / vbv_maxrate=50000 / vbv_bufsize=62500 / nal_hrd=none / filler=0 / ip_ratio=1.40 / pb_ratio=1.30 / aq=1:1.00
Language : English
Default : Yes
Forced : No
Color range : Limited
Color primaries : BT.709
Transfer characteristics : BT.709
Matrix coefficients : BT.709

Audio
ID : 2
Format : AC-3
Format/Info : Audio Coding 3
Mode extension : CM (complete main)
Format settings, Endianness : Big
Codec ID : A_AC3
Duration : 1 h 44 min
Bit rate mode : Constant
Bit rate : 384 kb/s
Channel(s) : 6 channels
Channel positions : Front: L C R, Side: L R, LFE
Sampling rate : 48.0 kHz
Frame rate : 31.250 FPS (1536 spf)
Compression mode : Lossy
Stream size : 286 MiB (20%)
Title : iTunes
Language : Russian
Default : Yes
Forced : No

Menu
00:00:00.000 : en:Глава 1
00:06:24.208 : en:Глава 2
00:11:28.124 : en:Глава 3
00:18:03.707 : en:Глава 4
00:23:21.997 : en:Глава 5
00:29:11.080 : en:Глава 6
00:34:57.705 : en:Глава 7
00:41:44.038 : en:Глава 8
00:48:28.579 : en:Глава 9
00:56:09.995 : en:Глава 10
01:00:47.286 : en:Глава 11
01:07:32.744 : en:Глава 12
01:13:46.660 : en:Глава 13
01:18:53.035 : en:Глава 14
01:24:56.076 : en:Глава 15
01:33:19.201 : en:Глава 16
Релиз от:

Автор релиза: pb.wtf



Скачать Субурбикон через торрент http://s019.radikal.ru/i614/1711/0a/a55397a747e3.png Скачать фильм Субурбикон через торрент бесплантно в хорошем качестве Описание:Добро пожаловать в солнечный Субурбикон! В прекрасный тихий городок в самом сердце Америки. Счастливые семьи. Недорогие миленькие ... 8.8 10 36
Info! Золотая раздача, скачанное не засчитывается.
Торрент: Зарегистрирован [2018-01-24 02:03] · скачан: 2 652 раз
Статус: √ проверено
Размер: 1.38 GB
Как cкачать? Как скачать Субурбикон через торрент | UTorrent

% Раздел Тема Автор DL S | L
Фильмы 2017 [DVDrip, WEB-DLRip, HDrip] (DUB, MVO) [ 2.05 GB ] Субурбикон / Suburbicon [2017 BDRip-AVC] - ExKinoRay Enigma2010 Скачать
1 | 0

28-11-2019 20:33  

Отключить всю рекламу на сайте

24-01-2018 17:59 Субурбикон Скачать торрент  

Фильм ладно скроен и хорошо сыгран. Хороший неонуар, открытий нет, но правила соблюдены. Смотреть интересно, хотя интрига утрачивается к середине просмотра. Если посмотрите, то не пожалеете. Верно и обратное. Клуни в качестве режиссера все сделал нормально. Качество рипа хорошее, без рекламы. Спасибо за раздачу.pb.wtf



24-01-2018 22:27 Субурбикон Скачать торрент  

rimins2 писал(а):

Фильм ладно скроен и хорошо сыгран. Хороший неонуар, открытий нет, но правила соблюдены. Смотреть интересно, хотя интрига утрачивается к середине просмотра. Если посмотрите, то не пожалеете. Верно и обратное. Клуни в качестве режиссера все сделал нормально. Качество рипа хорошее, без рекламы. Спасибо за раздачу.

pb.wtf



25-01-2018 03:54 Субурбикон Скачать торрент  

спс.всебы так.отзовики или рецензиаты)))pb.wtf



26-01-2018 10:11 Субурбикон Скачать торрент  

rimins2 писал(а):

Фильм ладно скроен и хорошо сыгран. Хороший неонуар, открытий нет, но правила соблюдены. Смотреть интересно, хотя интрига утрачивается к середине просмотра. Если посмотрите, то не пожалеете. Верно и обратное. Клуни в качестве режиссера все сделал нормально. Качество рипа хорошее, без рекламы. Спасибо за раздачу.

pb.wtf



26-01-2018 22:08 Субурбикон Скачать торрент  

Что по поводу рекламы есть или нету? почему не указано?pb.wtf



27-01-2018 06:55 Субурбикон Скачать торрент  

спс за отзыв.

YRBALAY писал(а):

Что по поводу рекламы есть или нету? почему не указано?

поколение людей у которых в озу не помещается пара предложений...pb.wtf



27-01-2018 10:16 Субурбикон Скачать торрент  

koshnv писал(а):

спс за отзыв.

YRBALAY писал(а):

Что по поводу рекламы есть или нету? почему не указано?

поколение людей у которых в озу не помещается пара предложений...

У меня озу 16 гиг, фул HD монитор.
В упор не вижу эту инфу.pb.wtf



27-01-2018 11:48 Субурбикон Скачать торрент  

ну такое.на один раз.pb.wtf



27-01-2018 12:24 Субурбикон Скачать торрент  

Кто смотрел отпишитесь есть реклама или нет, что бы знать качать или нет.pb.wtf



27-01-2018 15:23 Субурбикон Скачать торрент  

YRBALAY писал(а):

Кто смотрел отпишитесь есть реклама или нет, что бы знать качать или нет.

Рекламы НЕТ! Качай, не переживай pb.wtf



27-01-2018 17:32 Субурбикон Скачать торрент  

KIT417 писал(а):

YRBALAY писал(а):

Кто смотрел отпишитесь есть реклама или нет, что бы знать качать или нет.

Рекламы НЕТ! Качай, не переживай

Спс.)pb.wtf



28-01-2018 00:27 Субурбикон Скачать торрент  

Неплохой фильмец.pb.wtf



28-01-2018 19:13 Субурбикон Скачать торрент  

YRBALAY писал(а):

koshnv писал(а):

спс за отзыв.

YRBALAY писал(а):

Что по поводу рекламы есть или нету? почему не указано?

поколение людей у которых в озу не помещается пара предложений...

У меня озу 16 гиг, фул HD монитор.
В упор не вижу эту инфу.

Тот случай, когда железо лучше человека. Второй отзыв, самая его концовка. Глазки батенька протрите.pb.wtf



    Дорогой пользователь! Огромная просьба, поблагодарите релизера, оцените раздачу и оставьте свои комментарий, если Вы скачали Субурбикон через торрент бесплатно! Внесите свою лепту в развитие PiratBit!
    Комментировать посты могут только пользователи прошедшие не сложную регистрацию
    Показать сообщения:    

    Субурбикон через торрент
    Скачать бесплатно Субурбикон
    Субурбикон скачать торрент
    Субурбикон смотреть онлайн
    Cкачать фильм Субурбикон бесплатно
    Субурбикон скачать торрент в хорошем качестве
    Субурбикон смотреть онлайн бесплатно в хорошем качестве


    Вы не можете начинать темы
    Вы не можете отвечать на сообщения
    Вы не можете редактировать свои сообщения
    Вы не можете удалять свои сообщения
    Вы не можете голосовать в опросах
    Вы не можете прикреплять файлы к сообщениям
    Вы можете скачивать файлы