новый адрес пиратбит piratbit
Мега распродажа FORZA HORIZON 4 ULTIMATE+ВСЕ DLC+ОНЛАЙН всего за 499р. 349 руб. (супер цена). Внимание количество ограничено!!!

iTunes

1+1

iTunes

мы

iTunes

1

iTunes

Чернобыль

iTunes

Ральф против интернета

Лицензия

ПШазам

Лицензия

Игра престолов

Лицензия

30
pack

ВАЖНО

!!Акция!!

Alien_RageХит недели

RePack

Resident Evil 21

ИГРА 18+

pack

RePack

Metro:Exodus

!!Акция!!

Alien_Rage

RePack

fifa19

RePack

Assassins Creed: Odyssey

RePack

NEED FOR SPEED™ PAYBACK

3 сезон

9 сезон

Бесстыжие 9 сезон

Все сериалы

все сериалы на PB.wtf

RePack

FAR CRY 5
Ребята, катастрофически не хватает 1900р. для оплаты серверов за Октябрь (всвязи с блокировками трафик упал в 3 раза), 1-2р., выручайте.
  

Я был спутником Солнца (Виктор Моргенштерн) [1959, СССР, фантастика, VHSRip от AVP Studio] pb.wtf

Я был спутником Солнца через торрент pb.wtf

Размер: 744 MB | Добавлен: 1 год 9 мес. назад | Торрент скачан:15 раз
Скачать  

24-01-2018 08:39 Я был спутником Солнца Скачать торрент  

Я был спутником Солнца
Страна: СССР
Производство: Моснаучфильм

Жанр: фантастика
Год выпуска: 1959
Продолжительность: 01:02:23

Перевод: Не требуется
Cубтитры: нет
Оригинальная аудиодорожка: русский

Режиссер: Виктор Моргенштерн

В ролях:
Павел Махотин, Владимир Емельянов, Георгий Шамшурин, Анатолий Шамшурин...
Об актёрах подробней

Описание:
Рассказ ведется от имени молодого ученого, который пишет дневник. Ключевым эпизодом воспоминаний Андрея становится сюжет об ученом Игоре Петровиче (Владимир Емельянов), первом разведчике трассы к Солнцу и ближайшем друге отца, конструктора космических кораблей. Попав в полосу непроходимых зон, космический корабль тогда потерял связь с Землей и не вернулся. Спустя двадцать лет Андрей, в лаборатории которого успешно завершились испытания защитных материалов, решает повторить подвиг своего учителя.

Исходник: S-VHS
Качество видео: VHSRip
Формат видео: AVI

Видео: 688х512 (4:3), 25 fps, XviD ~ 1465 kbps avg, 0.166 bit/pixel
Аудио: 48 kHz, Dolby Digital AC3 2.0, 192 kbps

Раздача от:
Общее
Полное имя : Ya.byl.sputnikom.solnca.1959.VHSRip_[New-team]_by_AVP_Studio.avi
Формат : AVI
Формат/Информация : Audio Video Interleave
Размер файла : 744 Мбайт
Продолжительность : 1 ч. 2 м.
Общий поток : 1667 Кбит/сек
Программа кодирования : VirtualDubMod 1.5.10.3 | www.virtualdub-fr.org || (build 2550/release)
Библиотека кодирования : VirtualDubMod build 2550/release

Видео
Идентификатор : 0
Формат : MPEG-4 Visual
Профиль формата : Advanced Simple@L5
Настройки формата : BVOP1 / Custom Matrix
Параметр BVOP формата : 1
Параметр QPel формата : Нет
Параметр GMC формата : Без точки перехода
Параметр матрицы формата : Выборочная
Идентификатор кодека : XVID
Идентификатор кодека/Подсказка : XviD
Продолжительность : 1 ч. 2 м.
Битрейт : 1465 Кбит/сек
Ширина : 688 пикселей
Высота : 512 пикселей
Соотношение сторон : 4:3
Частота кадров : 25,000 кадров/сек
Цветовое пространство : YUV
Субдискретизация насыщенности : 4:2:0
Битовая глубина : 8 бит
Тип развёртки : Прогрессивная
Метод сжатия : С потерями
Бит/(Пиксели*Кадры) : 0.166
Размер потока : 654 Мбайт (88%)
Библиотека кодирования : XviD 73

Аудио
Идентификатор : 1
Формат : AC-3
Формат/Информация : Audio Coding 3
Идентификатор кодека : 2000
Продолжительность : 1 ч. 2 м.
Вид битрейта : Постоянный
Битрейт : 192 Кбит/сек
Каналы : 2 канала
Расположение каналов : Front: L R
Частота : 48,0 КГц
Частота кадров : 31,250 кадров/сек (1536 SPF)
Битовая глубина : 16 бит
Метод сжатия : С потерями
Размер потока : 85,7 Мбайт (12%)
Выравнивание : Разделение по промежуткам
Продолжительность промежутка : 40 мс. (1,00 видеокадр)
Время предзагрузки промежутка : 500 мс
pb.wtf



Скачать Я был спутником Солнца через торрент http://i101.fastpic.ru/big/2018/0124/2f/a92fea4746d6c8ece3ed11430809042f.png Скачать фильм Я был спутником Солнца через торрент бесплантно в хорошем качестве Описание:Рассказ ведется от имени молодого ученого, который пишет дневник. Ключевым эпизодом воспоминаний Андрея становится сюжет об ученом ... 5 10 1
Info! Золотая раздача, скачанное не засчитывается.
Торрент: Зарегистрирован [2018-01-24 08:39] · скачан: 15 раз
Статус: √ проверено
Размер: 744 MB
Как cкачать? Как скачать Я был спутником Солнца через торрент | qTorrent

% Раздел Тема Автор DL S | L
Кино СССР [ 745 MB ] Я был спутником Солнца [1959 СССР VHSRip-AVC от AVP Studio] AVP Studio Скачать
1 | 0


>> Регистрируемся здесь <<






Отзывы и комментарии о схеме читаем и пишем здесь: ---> Отзывы и комментарии о схеме

Новые благодарочки в телеграм довольных пользователей:
скриншот   скриншот   скриншот   скриншот   скриншот
    Дорогой пользователь! Огромная просьба, поблагодарите релизера, оцените раздачу и оставьте свои комментарий, если Вы скачали Я был спутником Солнца через торрент бесплатно! Внесите свою лепту в развитие PiratBit!
    Комментировать посты могут только пользователи прошедшие не сложную регистрацию
    Показать сообщения:    

    Я был спутником Солнца через торрент
    Скачать бесплатно Я был спутником Солнца
    Я был спутником Солнца скачать торрент
    Я был спутником Солнца смотреть онлайн
    Cкачать фильм Я был спутником Солнца бесплатно
    Я был спутником Солнца скачать торрент в хорошем качестве
    Я был спутником Солнца смотреть онлайн бесплатно в хорошем качестве


    Вы не можете начинать темы
    Вы не можете отвечать на сообщения
    Вы не можете редактировать свои сообщения
    Вы не можете удалять свои сообщения
    Вы не можете голосовать в опросах
    Вы не можете прикреплять файлы к сообщениям
    Вы можете скачивать файлы