Всегда рабочее зеркало без VPN и Proxy просто перед .vidak.icu напиши любое слово или цифру, Пример http://kqj9.vidak.icu

MVO

MVO

1 сезон

1

1 сезон

iTunes

1 сезон

13

1 сезон

Deluxe

pack

Рекомендуем

Repack

30

ВАЖНО

RePack

MK11

RePack

jed

RePack

fifa19

RePack

RDR2

RePack

NEED FOR SPEED™ PAYBACK

Кинопоиск HD

6 сезон

 Острые козырьки 6 сезон

Все сериалы

все сериалы на PB.wtf

RePack

FAR CRY 5
  
Magnet ссылка

That Rock Guy - Nothin' To Lose - 2017/ FLAC/ image +.cue/ lossless/ Melodic Hard Rock pb.wtf

That Rock Guy - Nothin' To Lose - 2017 через торрент pb.wtf

Размер: 335 MB | Добавлен: 4 года 6 мес. назад | Торрент скачан:15 раз
Смотреть онлайн That Rock Guy - Nothin' To Lose - 2017 | Скачать    Ребята, помогите собрать деньги на оплату серверов!!!

24-01-2018 11:09 That Rock Guy - Nothin' To Lose - 2017 Скачать торрент  


That Rock Guy - Nothin' To Lose


Год издания: 2017
Страна: Australia
Жанр: Melodic Hard Rock
Продолжительность: 00:42:25
Лейбл издания: AOR Heaven
Страна-выпуска диска: EU
Номер по каталогу: AORH00151
Формат: FLAC
Битрейт аудио: Lossless
Тип рипа: image +.cue
Наличие сканов в содержимом раздачи: да


01. Superstar (4:04)
02. Your Dreams Are Keeping Us Together (5:09)
03. Through The Night (5:06)
04. One Shot In A Million (3:30)
05. Never Gonna Say Goodbye (4:22)
06. Bring On The Night (4:59)
07. Can't Get Enough Of You (3:33)
08. Nothin' To Lose (3:36)
09. Without You (4:14)
10. Land Of The Rising Sun (3:51)

Код:

Exact Audio Copy V1.3 from 2. September 2016

Отчёт EAC об извлечении, выполненном 17. января 2018, 18:09

That Rock Guy / Nothin' To Lose

Дисковод: HL-DT-STDVDRAM GU40N   Adapter: 0  ID: 1

Режим чтения                 : Достоверность
Использование точного потока : Да
Отключение кэша аудио        : Да
Использование указателей C2  : Нет

Коррекция смещения при чтении                     : 103
Способность читать области Lead-in и Lead-out     : Нет
Заполнение пропущенных сэмплов тишиной            : Да
Удаление блоков с тишиной в начале и конце        : Нет
При вычислениях CRC использовались нулевые сэмплы : Да
Интерфейс                                         : Установленный внешний ASPI-интерфейс

Выходной формат          : Пользовательский кодировщик
Выбранный битрейт        : 320 kBit/s
Качество                 : Высокий
Добавление ID3-тега      : Да
Утилита сжатия           : C:\Users\workutagin\Desktop\EZCDAudioConverter6051BALTAGY\64Bit\EZ CD Audio Converter.exe
Дополнительные параметры :  -V -8 -T "Date=%year%" -T "Genre=%genre%" %source%

TOC извлечённого CD

     Трек |   Старт  | Длительность | Начальный сектор | Конечный сектор
    ---------------------------------------------------------------------
       1  |  0:00.41 |    4:03.62   |          41      |      18327
       2  |  4:04.28 |    5:09.32   |       18328      |      41534
       3  |  9:13.60 |    5:06.31   |       41535      |      64515
       4  | 14:20.16 |    3:30.26   |       64516      |      80291
       5  | 17:50.42 |    4:21.41   |       80292      |      99907
       6  | 22:12.08 |    4:58.51   |       99908      |     122308
       7  | 27:10.59 |    3:33.27   |      122309      |     138310
       8  | 30:44.11 |    3:36.07   |      138311      |     154517
       9  | 34:20.18 |    4:14.02   |      154518      |     173569
      10  | 38:34.20 |    3:51.31   |      173570      |     190925

Характеристики диапазона извлечения и сообщения об ошибках

Выбранный диапазон

     Имя файла C:\Users\workutagin\Desktop\THAT ROCK GUY - Nothin' To Lose 2017\That Rock Guy - Nothin' To Lose.wav

     Пиковый уровень 97.5 %
     Скорость извлечения 1.9 X
     Качество диапазона 100.0 %
     CRC теста 70E5FED8
     CRC копии 70E5FED8
     Копирование... OK

Ошибок не произошло

AccurateRip: сводка

Трек  1  : извлечено точно (доверие 3)  [4B13EE8F]  (AR v2)
Трек  2  : извлечено точно (доверие 3)  [1262ABC9]  (AR v2)
Трек  3  : извлечено точно (доверие 3)  [64D75E4B]  (AR v2)
Трек  4  : извлечено точно (доверие 3)  [C7E28528]  (AR v2)
Трек  5  : извлечено точно (доверие 3)  [1A6474F9]  (AR v2)
Трек  6  : извлечено точно (доверие 3)  [7787E60B]  (AR v2)
Трек  7  : извлечено точно (доверие 3)  [31E9ECBA]  (AR v2)
Трек  8  : извлечено точно (доверие 3)  [BC6ABB05]  (AR v2)
Трек  9  : извлечено точно (доверие 3)  [A7AC5045]  (AR v2)
Трек 10  : извлечено точно (доверие 3)  [63908D37]  (AR v2)

Все треки извлечены точно

Конец отчёта

---- CUETools DB Plugin V2.1.6

[CTDB TOCID: OVh6onXAS9SOEVWylkSi.HIGLgU-] found
Submit result: OVh6onXAS9SOEVWylkSi.HIGLgU- has been confirmed
Track | CTDB Status
  1   | (4/4) Accurately ripped
  2   | (4/4) Accurately ripped
  3   | (4/4) Accurately ripped
  4   | (4/4) Accurately ripped
  5   | (4/4) Accurately ripped
  6   | (4/4) Accurately ripped
  7   | (4/4) Accurately ripped
  8   | (4/4) Accurately ripped
  9   | (4/4) Accurately ripped
10   | (4/4) Accurately ripped

Код:

REM GENRE "Hard Rock"
REM DATE 2017
REM DISCID 7709F10A
REM COMMENT "ExactAudioCopy v1.3"
PERFORMER "That Rock Guy"
TITLE "Nothin' To Lose"
REM COMPOSER ""
FILE "That Rock Guy - Nothin' To Lose.flac" WAVE
  TRACK 01 AUDIO
    TITLE "Superstar"
    PERFORMER "That Rock Guy"
    REM COMPOSER ""
    INDEX 00 00:00:00
    INDEX 01 00:00:41
  TRACK 02 AUDIO
    TITLE "Your Dreams Are Keeping Us Together"
    PERFORMER "That Rock Guy"
    REM COMPOSER ""
    INDEX 01 04:04:28
  TRACK 03 AUDIO
    TITLE "Through The Night"
    PERFORMER "That Rock Guy"
    REM COMPOSER ""
    INDEX 01 09:13:60
  TRACK 04 AUDIO
    TITLE "One Shot In A Million"
    PERFORMER "That Rock Guy"
    REM COMPOSER ""
    INDEX 01 14:20:16
  TRACK 05 AUDIO
    TITLE "Never Gonna Say Goodbye"
    PERFORMER "That Rock Guy"
    REM COMPOSER ""
    INDEX 01 17:50:42
  TRACK 06 AUDIO
    TITLE "Bring On The Night"
    PERFORMER "That Rock Guy"
    REM COMPOSER ""
    INDEX 01 22:12:08
  TRACK 07 AUDIO
    TITLE "Can't Get Enough Of You"
    PERFORMER "That Rock Guy"
    REM COMPOSER ""
    INDEX 01 27:10:59
  TRACK 08 AUDIO
    TITLE "Nothin' To Lose"
    PERFORMER "That Rock Guy"
    REM COMPOSER ""
    INDEX 01 30:44:11
  TRACK 09 AUDIO
    TITLE "Without You"
    PERFORMER "That Rock Guy"
    REM COMPOSER ""
    INDEX 01 34:20:18
  TRACK 10 AUDIO
    TITLE "Land Of The Rising Sun"
    PERFORMER "That Rock Guy"
    REM COMPOSER ""
    INDEX 01 38:34:20




pb.wtf



Скачать That Rock Guy - Nothin' To Lose - 2017 через торрент http://i100.fastpic.ru/big/2018/0124/49/35c4228fcb49c67b073a0c5055aa8f49.png Скачать, смотреть онлайн That Rock Guy - Nothin' To Lose - 2017 бесплантно в хорошем качестве Трэклист Superstar (4:04) Your Dreams Are Keeping Us Together (5:09) Through The Night (5:06) One Shot In A Million ... 5 10 1
Торрент: Зарегистрирован [2018-01-24 11:09] · скачан: 15 раз
Статус: √ проверено
Размер: 335 MB
Как cкачать? Как скачать That Rock Guy - Nothin' To Lose - 2017 через торрент | UTorrent

28-11-2019 20:33  

Отключить вcю реклaмy на сайте

    Дорогой пользователь! Огромная просьба, поблагодарите релизера, оцените раздачу и оставьте свои комментарий, если Вы скачали That Rock Guy - Nothin' To Lose - 2017 через торрент бесплатно!
    Комментировать посты могут только пользователи прошедшие не сложную регистрацию
    Показать сообщения:    

    That Rock Guy - Nothin' To Lose - 2017 через торрент
    Скачать бесплатно That Rock Guy - Nothin' To Lose - 2017
    That Rock Guy - Nothin' To Lose - 2017 скачать торрент
    That Rock Guy - Nothin' To Lose - 2017 смотреть онлайн
    Cкачать фильм That Rock Guy - Nothin' To Lose - 2017 бесплатно
    That Rock Guy - Nothin' To Lose - 2017 скачать торрент в хорошем качестве
    That Rock Guy - Nothin' To Lose - 2017 смотреть онлайн бесплатно в хорошем качестве


    Вы не можете начинать темы
    Вы не можете отвечать на сообщения
    Вы не можете редактировать свои сообщения
    Вы не можете удалять свои сообщения
    Вы не можете голосовать в опросах
    Вы не можете прикреплять файлы к сообщениям
    Вы можете скачивать файлы