Ссылка на приватное зеркало нашего сайта всего за 1$. Внимание количество ограничено!!!

2 сезон

iTunes

1 сезон

1

2 сезон

2 сезон

iTunes

1 сезон

RePack

30

Ultimate

ВАЖНО

ИГРА 18+

pack

RePack

MK11
pack

Забери бонус

RePack

jed

!!Акция!!

Alien_Rage

RePack

fifa19

RePack

Assassins Creed: Odyssey

RePack

NEED FOR SPEED™ PAYBACK

4 сезон

9 сезон

Бесстыжие 9 сезон

Все сериалы

все сериалы на PB.wtf

RePack

FAR CRY 5
  

Мой любимый динозавр / My Pet Dinosaur (Мэтт Драммонд) [2017, боевик, приключения, семейный, BD Remux 1080p] DUB [iTunes] pb.wtf

Мой любимый динозавр через торрент pb.wtf

Размер: 15.68 GB | Добавлен: 2 года 10 мес. назад | Торрент скачан:57 раз
Скачать  

24-01-2018 12:18 Мой любимый динозавр Скачать торрент  

Мой любимый динозавр / My Pet DinosaurГод выпуска: 2017
Страна: Австралия
Жанр: боевик, приключения, семейный
Продолжительность: 01:33:48
Перевод: Дубляж - [iTunes]
Субтитры: отсутствуют

Режиссер: Мэтт Драммонд

rating

В ролях:

Джордан Дулье, Аннабель Вулф, Джоэнн Сэмюэл, Дэвид Робертс, Тириел Мора, Сэм Уинспир-Шиллингс, Дариус Уильямс, Кристофер Габарди, Бет Чемпион, Том Руни

Описание:

Джейк заводит нового необычного друга, но, увы, эксперимент идет не по плану и город превращается в полный хаос. Но существо, с которым подружился Джейк, с каждым днем развивается быстрее, и мальчику становится трудно скрывать питомца. Друзья Джейка понимают, что не их одних интересует этот странный динозавр и вскоре узнают, что самым загадочным в ситуации оказалось не само существо, а тот, кто его искал.

Качество: BD Remux 1080p
Формат: MKV

Видео: MPEG-4 AVC, 21,6 Мбит/с, 1920x1080, 23,976 кадр/с
Аудио#1: Русский (AC3, 6 ch, 384 Кбит/с)
Аудио#2: английский (DTS, 6 ch, 1509 Кбит/с)
скриншот  скриншот  скриншот  

Общее
Уникальный идентификатор : 246391366921544778968121198297440880140 (0xB95D404BF9553604B405667F66B8860C)
Полное имя : D:\новые фильмы 43\My.Pet.Dinosaur.2017.BDREMUX 1080p.mkv
Формат : Matroska
Версия формата : Version 4 / Version 2
Размер файла : 15,7 Гбайт
Продолжительность : 1 ч. 33 м.
Режим общего битрейта : Переменный
Общий поток : 23,9 Мбит/сек
Название фильма : My.Pet.Dinosaur.2017.BDREMUX 1080p
Дата кодирования : UTC 2018-01-23 19:29:25
Программа кодирования : mkvmerge v6.0.0 ('Coming Up For Air') built on Jan 20 2013 09:52:00
Библиотека кодирования : libebml v1.3.0 + libmatroska v1.4.0
Attachment : Yes / Yes / Yes / Yes

Видео
Идентификатор : 1
Формат : AVC
Формат/Информация : Advanced Video Codec
Профиль формата : High@L4.1
Параметр CABAC формата : Да
Параметр ReFrames формата : 3 кадра
Идентификатор кодека : V_MPEG4/ISO/AVC
Продолжительность : 1 ч. 33 м.
Вид битрейта : Переменный
Битрейт : 21,6 Мбит/сек
Максимальный битрейт : 37,0 Мбит/сек
Ширина : 1920 пикселей
Высота : 1080 пикселей
Соотношение сторон : 16:9
Режим частоты кадров : Постоянный
Частота кадров : 23,976 кадра/сек
Цветовое пространство : YUV
Субдискретизация насыщенности : 4:2:0
Битовая глубина : 8 бит
Тип развёртки : Прогрессивная
Бит/(Пиксели*Кадры) : 0.434
Размер потока : 14,1 Гбайт (90%)
Заголовок : My.Pet.Dinosaur.2017.BDREMUX 1080p
Язык : English
Default : Нет
Forced : Нет

Аудио #1
Идентификатор : 2
Формат : AC-3
Формат/Информация : Audio Coding 3
Расширение режима : CM (complete main)
Параметр Endianness формата : Big
Идентификатор кодека : A_AC3
Продолжительность : 1 ч. 33 м.
Вид битрейта : Постоянный
Битрейт : 384 Кбит/сек
Каналы : 6 каналов
Расположение каналов : Front: L C R, Side: L R, LFE
Частота : 48,0 КГц
Битовая глубина : 16 бит
Метод сжатия : С потерями
Размер потока : 258 Мбайт (2%)
Заголовок : Dub [iTunes]
Язык : Russian
Default : Да
Forced : Нет

Аудио #2
Идентификатор : 3
Формат : DTS
Формат/Информация : Digital Theater Systems
Режим : 16
Параметр Endianness формата : Big
Идентификатор кодека : A_DTS
Продолжительность : 1 ч. 33 м.
Вид битрейта : Постоянный
Битрейт : 1509 Кбит/сек
Каналы : 6 каналов
Расположение каналов : Front: L C R, Side: L R, LFE
Частота : 48,0 КГц
Битовая глубина : 16 бит
Метод сжатия : С потерями
Размер потока : 1012 Мбайт (6%)
Заголовок : Original
Язык : English
Default : Нет
Forced : Нет

Меню
00:00:00.000 : en:Chapter 01
00:09:21.435 : en:Chapter 02
00:17:58.744 : en:Chapter 03
00:25:10.383 : en:Chapter 04
00:32:31.950 : en:Chapter 05
00:40:29.176 : en:Chapter 06
00:47:27.344 : en:Chapter 07
00:54:53.957 : en:Chapter 08
01:02:29.162 : en:Chapter 09
01:11:36.250 : en:Chapter 10
01:19:15.250 : en:Chapter 11
01:26:00.280 : en:Chapter 12

pb.wtf



Скачать Мой любимый динозавр через торрент http://i2.imageban.ru/out/2018/01/22/fcde300c58d224a62ac178ed6e76abaa.png Скачать фильм Мой любимый динозавр через торрент бесплантно в хорошем качестве Описание: Джейк заводит нового необычного друга, но, увы, эксперимент идет не по плану и город превращается в полный хаос. Но существо, с ... 10 10 4
Торрент: Зарегистрирован [2018-01-24 12:18] · скачан: 57 раз
Статус: √ проверено
Размер: 15.68 GB
Как cкачать? Как скачать Мой любимый динозавр через торрент | qTorrent

% Раздел Тема Автор DL S | L
Фильмы 2017 [DVDrip, WEB-DLRip, HDrip] (DUB, MVO) [ 1.45 GB ] Мой любимый динозавр / My Pet Dinosaur [2017 BDRip] DUB [ R5] bober100 Скачать
1 | 0
Видео для КПК и Смартфонов [ 356 MB ] Мой любимый динозавр / My Pet Dinosaur [2017 HDRip КПК] Dub sergey82 Скачать
1 | 0
Фильмы 2017 [DVDrip, WEB-DLRip, HDrip] (DUB, MVO) [ 1.46 GB ] Мой любимый динозавр / My Pet Dinosaur [2017 BDRip] - [] Twi7ter Скачать
1 | 0
Фильмы 2017 [DVDrip, WEB-DLRip, HDrip] (DUB, MVO) [ 2.64 GB ] Мой любимый динозавр / My Pet Dinosaur [2017 BDRip-AVC - ] WorldSM Скачать
1 | 0
Фильмы 2017 [DVDrip, WEB-DLRip, HDrip] (DUB, MVO) [ 746 MB ] Мой любимый динозавр / My Pet Dinosaur [2017 HDRip] bober100 Скачать
1 | 0
Фильмы [HD 720p, 1080p] (Хороший звук DUB, MVO) [ 8.91 GB ] Мой любимый динозавр / My Pet Dinosaur [2017 BDRip 1080p] bober100 Скачать
1 | 0

28-11-2019 20:33  

Отключить всю рекламу на сайте

    Дорогой пользователь! Огромная просьба, поблагодарите релизера, оцените раздачу и оставьте свои комментарий, если Вы скачали Мой любимый динозавр через торрент бесплатно! Внесите свою лепту в развитие PiratBit!
    Комментировать посты могут только пользователи прошедшие не сложную регистрацию
    Показать сообщения:    

    Мой любимый динозавр через торрент
    Скачать бесплатно Мой любимый динозавр
    Мой любимый динозавр скачать торрент
    Мой любимый динозавр смотреть онлайн
    Cкачать фильм Мой любимый динозавр бесплатно
    Мой любимый динозавр скачать торрент в хорошем качестве
    Мой любимый динозавр смотреть онлайн бесплатно в хорошем качестве


    Вы не можете начинать темы
    Вы не можете отвечать на сообщения
    Вы не можете редактировать свои сообщения
    Вы не можете удалять свои сообщения
    Вы не можете голосовать в опросах
    Вы не можете прикреплять файлы к сообщениям
    Вы можете скачивать файлы