Всегда рабочее зеркало без VPN и Proxy просто перед .vidak.icu напиши любое слово или цифру, Пример http://z9sc.vidak.icu

MVO

2 сезон

2 сезон

1

1 сезон

iTunes

2 сезон

13

1 сезон

Deluxe

pack

Рекомендуем

Пиратка

30

ВАЖНО

RePack

MK11

RePack

jed

RePack

fifa19

RePack

RDR2

RePack

NEED FOR SPEED™ PAYBACK

Кинопоиск HD

6 сезон

 Острые козырьки 6 сезон

Все сериалы

все сериалы на PB.wtf

RePack

FAR CRY 5

Anonymous, нам критически не хватает 5601 руб. на оплату серверов и переферии за Апрель, помоги нам пожалуйста, вся надежда только на тебя. В благодарность мы отключим тебе всю рекламу на сайте!

×
  
Magnet ссылка

Прибытие / Arrival (Дени Вильнёв / Denis Villeneuve) [2016, фантастика, триллер, драма, BDRip-AVC] Dub [Лицензия] pb.wtf

Прибытие через торрент pb.wtf

Раздают: 1 [ 0.3 KB/s ]
Размер: 2.18 GB | Добавлен: 4 года 3 мес. назад | Торрент скачан:453 раза
Смотреть онлайн Прибытие | Скачать    Ребята, помогите собрать деньги на оплату серверов!!!

24-01-2018 12:58 Прибытие Скачать торрент  

Прибытие
Arrival

«Why are they here?»


Страна: США
Жанр: фантастика, триллер, драма, детектив

Год выпуска: 2016
Продолжительность: 01:56:32

Перевод: Профессиональный (полное дублирование) [Blu-ray EUR]
Субтитры: русские (форсированные, полные), украинские (форсированные, полные), английские (форсированные, полные, SDH, SDH цветные)
Оригинальная аудиодорожка: английский

Режиссер: Дени Вильнёв / Denis Villeneuve

В ролях: Эми Адамс, Джереми Реннер, Форест Уитакер, Майкл Стулбарг, Марк О’Брайэн, Ци Ма, Эбигейл Пнёвски, Джулия Скарлет Дэн, Джейдин Мэлоун, Фрэнк Скорпион, Lucas Chartier-Dessert, Кристиан Джада

Описание:
Неожиданное появление неопознанных летающих объектов в разных точках планеты повергает мир в трепет. Намерения пришельцев не ясны - вооружённые силы всего мира приведены в полную боевую готовность, а лучшие умы человечества пытаются понять, как разговаривать с непрошеными гостями. Правительство обращается за помощью к лингвисту Луизе Бэнкс и физику Яну Доннели, чтобы предотвратить глобальную катастрофу и найти общий язык с пришельцами. Отныне судьба человечества находится в их руках.



Релиз:

Автор рипа: stalkerok | Моя группа

Сэмпл

Качество видео: BDRip-AVC [Arrival (2016) Blu-ray Disc [EUR] -BLUEBIRD]
Формат видео: MKV
Видео кодек: AVC
Аудио кодек: AC3
Видео: 1847 Кбит/сек, 1152*482 (2.40:1), 23,976 кадр/сек, AVC
Аудио #1: русский, 448 Кбит/сек, 48 КГц, 5.1, AC3
Аудио #2: английский, 384 Кбит/сек, 48 КГц, 5.1, AC3
Навигация по главам: есть

Лог утерян. Рип был сделан 04.03.2017 до появления гибридного ремукса и 4k HDR.

Общее
Уникальный идентификатор : 183084750076944249406714037354772634324 (0x89BCD71AD884B9968EFFE1E7F9CD1AD4)
Полное имя : M:\!!!!!!Rips\Arrival (2016)\Arrival.2016.BDRip-AVC.RUS.ENG.stalkerok.new-team.mkv
Формат : Matroska
Версия формата : Version 4 / Version 2
Размер файла : 2,18 Гбайт
Продолжительность : 1 ч. 56 м.
Общий поток : 2682 Кбит/сек
Название фильма : Arrival (2016) (Rip by stalkerok)
Дата кодирования : UTC 2018-01-24 12:05:43
Программа кодирования : mkvmerge v8.6.1 ('Flying') 64bit
Библиотека кодирования : libebml v1.3.3 + libmatroska v1.4.4

Видео
Идентификатор : 4
Формат : AVC
Формат/Информация : Advanced Video Codec
Профиль формата : High@L4.1
Параметр CABAC формата : Да
Параметр ReFrames формата : 13 кадров
Идентификатор кодека : V_MPEG4/ISO/AVC
Продолжительность : 1 ч. 56 м.
Битрейт : 1847 Кбит/сек
Ширина : 1152 пикселя
Высота : 482 пикселя
Соотношение сторон : 2,40:1
Режим частоты кадров : Постоянный
Частота кадров : 23,976 (24000/1001) кадра/сек
Цветовое пространство : YUV
Субдискретизация насыщенности : 4:2:0
Битовая глубина : 8 бит
Тип развёртки : Прогрессивная
Бит/(Пиксели*Кадры) : 0.139
Размер потока : 1,50 Гбайт (69%)
Заголовок : Arrival (2016) (Rip by stalkerok)
Библиотека кодирования : x264 core 148 r2705+54 9f484c1 t_mod_Custom [8-bit@all X86_64]
Настройки программы : cabac=1 / ref=13 / deblock=1:-3:-2 / analyse=0x3:0x133 / me=umh / subme=10 / psy=1 / fade_compensate=0.00 / psy_rd=1.00:0.00 / mixed_ref=1 / me_range=32 / chroma_me=1 / trellis=2 / 8x8dct=1 / cqm=0 / deadzone=21,11 / fast_pskip=0 / chroma_qp_offset=-2 / threads=12 / lookahead_threads=3 / sliced_threads=0 / nr=0 / decimate=0 / interlaced=0 / bluray_compat=0 / constrained_intra=0 / fgo=0 / bframes=14 / b_pyramid=2 / b_adapt=2 / b_bias=0 / direct=3 / weightb=1 / open_gop=0 / weightp=2 / keyint=240 / keyint_min=23 / scenecut=40 / intra_refresh=0 / rc_lookahead=60 / rc=2pass / mbtree=0 / bitrate=1847 / ratetol=1.0 / qcomp=0.65 / qpmin=0:0:0 / qpmax=69:69:69 / qpstep=4 / cplxblur=20.0 / qblur=0.5 / vbv_maxrate=50000 / vbv_bufsize=62500 / nal_hrd=none / filler=0 / ip_ratio=1.40 / pb_ratio=1.30 / aq=3:0.85 / aq-sensitivity=10.00 / aq-factor=1.00:1.00:1.00 / aq2=0 / aq3=0
Default : Да
Forced : Нет

Аудио #1
Идентификатор : 1
Формат : AC-3
Формат/Информация : Audio Coding 3
Расширение режима : CM (complete main)
Параметр Endianness формата : Big
Идентификатор кодека : A_AC3
Продолжительность : 1 ч. 56 м.
Вид битрейта : Постоянный
Битрейт : 448 Кбит/сек
Каналы : 6 каналов
Расположение каналов : Front: L C R, Side: L R, LFE
Частота : 48,0 КГц
Частота кадров : 31,250 кадров/сек (1536 spf)
Метод сжатия : С потерями
Размер потока : 373 Мбайт (17%)
Язык : Russian
Default : Да
Forced : Нет

Аудио #2
Идентификатор : 11
Формат : AC-3
Формат/Информация : Audio Coding 3
Расширение режима : CM (complete main)
Параметр Endianness формата : Big
Идентификатор кодека : A_AC3
Продолжительность : 1 ч. 56 м.
Вид битрейта : Постоянный
Битрейт : 384 Кбит/сек
Каналы : 6 каналов
Расположение каналов : Front: L C R, Side: L R, LFE
Частота : 48,0 КГц
Частота кадров : 31,250 кадров/сек (1536 spf)
Метод сжатия : С потерями
Размер потока : 320 Мбайт (14%)
Язык : English
Default : Нет
Forced : Нет

Текст #1
Идентификатор : 2
Формат : UTF-8
Идентификатор кодека : S_TEXT/UTF8
Идентификатор кодека/Информация : UTF-8 Plain Text
Продолжительность : 1 ч. 50 м.
Битрейт : 2 бит/сек
Count of elements : 43
Размер потока : 2,05 Кбайт (0%)
Заголовок : Forced
Язык : Russian
Default : Да
Forced : Нет

Текст #2
Идентификатор : 3
Формат : UTF-8
Идентификатор кодека : S_TEXT/UTF8
Идентификатор кодека/Информация : UTF-8 Plain Text
Продолжительность : 1 ч. 54 м.
Битрейт : 86 бит/сек
Count of elements : 1267
Размер потока : 72,6 Кбайт (0%)
Язык : Russian
Default : Нет
Forced : Нет

Текст #3
Идентификатор : 5
Формат : UTF-8
Идентификатор кодека : S_TEXT/UTF8
Идентификатор кодека/Информация : UTF-8 Plain Text
Продолжительность : 1 ч. 50 м.
Битрейт : 2 бит/сек
Count of elements : 39
Размер потока : 1,82 Кбайт (0%)
Заголовок : Forced
Язык : Ukrainian
Default : Нет
Forced : Нет

Текст #4
Идентификатор : 6
Формат : UTF-8
Идентификатор кодека : S_TEXT/UTF8
Идентификатор кодека/Информация : UTF-8 Plain Text
Продолжительность : 1 ч. 54 м.
Битрейт : 82 бит/сек
Count of elements : 1266
Размер потока : 69,4 Кбайт (0%)
Заголовок : Forced
Язык : Ukrainian
Default : Нет
Forced : Нет

Текст #5
Идентификатор : 7
Формат : UTF-8
Идентификатор кодека : S_TEXT/UTF8
Идентификатор кодека/Информация : UTF-8 Plain Text
Продолжительность : 2 м. 33 с.
Битрейт : 7 бит/сек
Count of elements : 8
Размер потока : 151 байт (0%)
Язык : English
Default : Нет
Forced : Нет

Текст #6
Идентификатор : 8
Формат : UTF-8
Идентификатор кодека : S_TEXT/UTF8
Идентификатор кодека/Информация : UTF-8 Plain Text
Продолжительность : 1 ч. 48 м.
Битрейт : 47 бит/сек
Count of elements : 1275
Размер потока : 37,6 Кбайт (0%)
Язык : English
Default : Нет
Forced : Нет

Текст #7
Идентификатор : 9
Формат : UTF-8
Идентификатор кодека : S_TEXT/UTF8
Идентификатор кодека/Информация : UTF-8 Plain Text
Продолжительность : 1 ч. 48 м.
Битрейт : 52 бит/сек
Count of elements : 1438
Размер потока : 42,2 Кбайт (0%)
Заголовок : SDH
Язык : English
Default : Нет
Forced : Нет

Текст #8
Идентификатор : 10
Формат : UTF-8
Идентификатор кодека : S_TEXT/UTF8
Идентификатор кодека/Информация : UTF-8 Plain Text
Продолжительность : 1 ч. 48 м.
Битрейт : 68 бит/сек
Count of elements : 1438
Размер потока : 54,6 Кбайт (0%)
Заголовок : SDH Colored
Язык : English
Default : Нет
Forced : Нет

Меню
00:00:00.000 : en:Chapter 1
00:09:54.385 : en:Chapter 2
00:17:38.015 : en:Chapter 3
00:24:31.595 : en:Chapter 4
00:33:58.619 : en:Chapter 5
00:43:51.211 : en:Chapter 6
00:52:30.564 : en:Chapter 7
00:57:39.038 : en:Chapter 8
01:03:10.912 : en:Chapter 9
01:09:33.669 : en:Chapter 10
01:17:23.680 : en:Chapter 11
01:25:26.287 : en:Chapter 12
01:35:41.527 : en:Chapter 13
01:41:00.429 : en:Chapter 14
01:43:42.966 : en:Chapter 15
01:45:38.206 : en:Chapter 16
скриншот   скриншот   скриншот   скриншот   скриншот   скриншот   скриншот   скриншот  
pb.wtf



Скачать Прибытие через торрент http://i6.imageban.ru/out/2017/09/18/2ff75c0c358795c5946784cc1680714d.png Скачать, смотреть онлайн Прибытие бесплантно в хорошем качестве Описание:Неожиданное появление неопознанных летающих объектов в разных точках планеты повергает мир в трепет. Намерения пришельцев не ясны ... 8.4 10 5
Info! Золотая раздача, скачанное не засчитывается.
Торрент: Зарегистрирован [2018-01-24 12:58] · скачан: 453 раз
Статус: √ проверено
Размер: 2.18 GB
Как cкачать? Как скачать Прибытие через торрент | UTorrent

% Раздел Тема Автор DL S | L
Ultra HD (UHD: 2K, 4K, 8K) — видео сверхвысокой чёткости [ 19.43 GB ] Прибытие / Arrival [2016 UHD BDRip 2160p] [SDR] DUB + 2xAVO sheker187 Скачать
1 | 0
Ultra HD (UHD: 2K, 4K, 8K) — видео сверхвысокой чёткости [ 68.63 GB ] Прибытие / Arrival [2016 UHD BDRemux 2160p] DUB + MVO + 7xAVO sheker187 Скачать
1 | 0
Фильмы [HD 720p, 1080p] (Хороший звук DUB, MVO) [ 18.21 GB ] Прибытие / The Arrival [1996 BDRip 1080p by msltel] 2 x MVO 3 x DVO 3 x AVO msltel Скачать
1 | 0
Фильмы [HD 720p, 1080p] (Хороший звук DUB, MVO) [ 8.31 GB ] Прибытие / The Arrival [1996 BDRip 720p by msltel] 2 x MVO 3 x DVO 3 x AVO msltel Скачать
1 | 0
T Фильмы 2017 [DVDrip, WEB-DLRip, HDrip] (DUB, MVO) [ 1.6 GB ] Смерть по прибытии / Dead on Arrival [2017 трилле WEB-DLRip-AVC] MVO [HDRezka Studio] bober100 Скачать
1 | 0
T Фильмы (WEB-DL 720p, 1080p) [ 3.44 GB ] Смерть по прибытии / Dead on Arrival [2017 WEB-DL 1080p] MVO [HDrezka Studio] sokol_ok Скачать
2 | 0
T Фильмы 2017 [DVDrip, WEB-DLRip, HDrip] (DUB, MVO) [ 1.37 GB ] Смерть по прибытии / Dead on Arrival [2017 WEB-DLRip] MVO [HDrezka Studio] bober100 Скачать
1 | 0

28-11-2019 20:33  

Отключить всю рекламу на сайте

20-08-2018 15:31 Прибытие Скачать торрент  

уснул на 10 минутеpb.wtf



    Дорогой пользователь! Огромная просьба, поблагодарите релизера, оцените раздачу и оставьте свои комментарий, если Вы скачали Прибытие через торрент бесплатно!
    Комментировать посты могут только пользователи прошедшие не сложную регистрацию
    Показать сообщения:    

    Прибытие через торрент
    Скачать бесплатно Прибытие
    Прибытие скачать торрент
    Прибытие смотреть онлайн
    Cкачать фильм Прибытие бесплатно
    Прибытие скачать торрент в хорошем качестве
    Прибытие смотреть онлайн бесплатно в хорошем качестве


    Вы не можете начинать темы
    Вы не можете отвечать на сообщения
    Вы не можете редактировать свои сообщения
    Вы не можете удалять свои сообщения
    Вы не можете голосовать в опросах
    Вы не можете прикреплять файлы к сообщениям
    Вы можете скачивать файлы