2 сезон

iTunes

MVO

1

2 сезон

iTunes

iTunes

1 сезон

RePack

30

Новинка

ВАЖНО

ИГРА 18+

pack

RePack

MK11
pack

Легкие деньги

RePack

jed

RePack

fifa19

RePack

RDR2

RePack

NEED FOR SPEED™ PAYBACK

4 сезон

9 сезон

Бесстыжие 9 сезон

Все сериалы

все сериалы на PB.wtf

RePack

FAR CRY 5

Anonymous, добрый вечер, мы не успеваем собрать деньги на оплату серверов за декабрь и январь, помогите нам пожалуйста в это трудное время. В качестве благодарности мы отключим Вам всю рекламу на сайте (укажите свой ник в строку Ваше имя)!

×
  
Magnet ссылка

Смертельная битва / Mortal Kombat (Пол У.С. Андерсон) [1995, фантастика, фэнтези, боевик, триллер, приключения, BDRip 720p 60 fps от еnvy / NNNB] DUB, MVO, DVO, AVO pb.wtf

Смертельная битва через торрент pb.wtf

Раздают: 7 [ 0 KB/s ]
Размер: 7.91 GB | Добавлен: 2 года 11 мес. назад | Торрент скачан:404 раза
Скачать  

24-01-2018 14:28 Смертельная битва Скачать торрент  

Информация о фильме
Русское название: Смертельная битва
Оригинальное название: Mortal Kombat
Год выхода: 1995
Жанр: фантастика, фэнтези, боевик, триллер, приключения
Режиссер: Пол У.С. Андерсон
Выпущено: США
Продолжительность: 01:42:29
Перевод: Дублированный (Петербургский дубляж), Профессиональный (многоголосый, закадровый), Профессиональный (двухголосый, закадровый), Авторский (одноголосый)
В ролях: Кристофер Ламберт, Робин Шу, Линден Эшби, Кэри-Хироюки Тагава, Бриджет Уилсон, Талиса Сото, Трэвор Годдард, Крис Касамасса, Франсуа Пети, Кит Кук
Описание:
Несколько столетий назад Шанг Тсунг — маг из потустороннего мира захватил в свои руки древний воинский турнир. Его цель — ввергнуть наш мир в хаос. Чтобы спасти человечество от гибели, троим воинам предстоит битва… смертельная битва с силами мрака....
Файл
Качество: BDRip 720p (исходник Blu-ray Disc Remux)
Контейнер: MKV (расширение файла)
Видео: 1280x720, 7168 Кбит/сек, 60.000 кадр/сек, AVC, x264, High@L4.1, 16:9, 0.130 Бит/[Пиксели*Кадры]
Аудио 1: AC-3, 448 Кбит/сек, 2 канала(ов), 48,0 КГц - Дублированный, Петербургский дубляж / Русский
Аудио 2: AC-3, 448 Кбит/сек, 6 канала(ов), 48,0 КГц - Многоголосый закадровый, CP-DIGITAL / Русский
Аудио 3: AC-3, 384 Кбит/сек, 6 канала(ов), 48,0 КГц - Многоголосый закадровый, DDV / Русский
Аудио 4: AC-3, 384 Кбит/сек, 6 канала(ов), 48,0 КГц - Многоголосый закадровый / Русский
Аудио 5: AC-3, 192 Кбит/сек, 2 канала(ов), 48,0 КГц - Многоголосый закадровый, ОРТ / Русский
Аудио 6: AC-3, 192 Кбит/сек, 2 канала(ов), 48,0 КГц - Двухголосый закадровый, НТВ / Русский
Аудио 7: AC-3, 384 Кбит/сек, 6 канала(ов), 48,0 КГц - Одноголосый закадровый, Ю.Сербин / Русский
Аудио 8: AC-3, 384 Кбит/сек, 6 канала(ов), 48,0 КГц - Одноголосый закадровый, Ю.Живов / Русский
Аудио 9: AC-3, 192 Кбит/сек, 2 канала(ов), 48,0 КГц - Одноголосый закадровый, С.Визгунов / Русский
Аудио 10: AC-3, 640 Кбит/сек, 6 канала(ов), 48,0 КГц - Оригинал / Английский
Субтитры: Русские | Полные, Английские | Полные
Форсированные субтитры: Нет
Чаптеры (Главы): Есть


Автор Рипа: Сообщество: мы в VK
скриншот   скриншот   скриншот   скриншот   скриншот  
Format : Matroska
Format version : Version 2
File size : 7.91 GiB
Duration : 1 h 41 min
Overall bit rate : 11.2 Mb/s
Movie name : Mortal Kombat.(1995).BDRip.720p.[envy].[60fps]
Encoded date : UTC 2018-01-23 19:27:59
Writing application : mkvmerge v5.8.0 ('No Sleep / Pillow') built on Sep 2 2012 15:37:04
Writing library : libebml v1.2.3 + libmatroska v1.3.0

Video
ID : 1
Format : AVC
Format/Info : Advanced Video Codec
Format profile : High@L4.1
Format settings : CABAC / 9 Ref Frames
Format settings, CABAC : Yes
Format settings, ReFrames : 9 frames
Codec ID : V_MPEG4/ISO/AVC
Duration : 1 h 41 min
Bit rate : 7 168 kb/s
Width : 1 280 pixels
Height : 720 pixels
Display aspect ratio : 16:9
Frame rate mode : Constant
Frame rate : 60.000 FPS
Color space : YUV
Chroma subsampling : 4:2:0
Bit depth : 8 bits
Scan type : Progressive
Bits/(Pixel*Frame) : 0.130
Stream size : 5.08 GiB (64%)
Writing library : x264 core 146 r2538 121396c
Encoding settings : cabac=1 / ref=9 / deblock=1:0:0 / analyse=0x3:0x113 / me=umh / subme=11 / psy=1 / psy_rd=1.00:0.00 / mixed_ref=1 / me_range=24 / chroma_me=1 / trellis=2 / 8x8dct=1 / cqm=0 / deadzone=21,11 / fast_pskip=0 / chroma_qp_offset=-2 / threads=12 / lookahead_threads=1 / sliced_threads=0 / nr=0 / decimate=1 / interlaced=0 / bluray_compat=0 / constrained_intra=0 / bframes=5 / b_pyramid=2 / b_adapt=2 / b_bias=0 / direct=3 / weightb=1 / open_gop=0 / weightp=2 / keyint=250 / keyint_min=25 / scenecut=40 / intra_refresh=0 / rc_lookahead=40 / rc=crf / mbtree=0 / crf=17.0 / qcomp=0.60 / qpmin=0 / qpmax=69 / qpstep=4 / vbv_maxrate=14000 / vbv_bufsize=14000 / crf_max=0.0 / nal_hrd=none / filler=0 / ip_ratio=1.40 / pb_ratio=1.30 / aq=3:1.00
Language : English
Default : Yes
Forced : No

Audio #1
ID : 2
Format : AC-3
Format/Info : Audio Coding 3
Codec ID : A_AC3
Duration : 1 h 41 min
Bit rate mode : Constant
Bit rate : 448 kb/s
Channel(s) : 2 channels
Channel positions : Front: L R
Sampling rate : 48.0 kHz
Frame rate : 31.250 FPS (1536 SPF)
Bit depth : 16 bits
Compression mode : Lossy
Stream size : 325 MiB (4%)
Title : Dub [Петербургский дубляж]
Language : Russian
Service kind : Complete Main
Default : Yes
Forced : No

Audio #2
ID : 3
Format : AC-3
Format/Info : Audio Coding 3
Codec ID : A_AC3
Duration : 1 h 41 min
Bit rate mode : Constant
Bit rate : 448 kb/s
Channel(s) : 6 channels
Channel positions : Front: L C R, Side: L R, LFE
Sampling rate : 48.0 kHz
Frame rate : 31.250 FPS (1536 SPF)
Bit depth : 16 bits
Compression mode : Lossy
Stream size : 325 MiB (4%)
Title : MVO CP-DIGITAL
Language : Russian
Service kind : Complete Main
Default : No
Forced : No

Audio #3
ID : 4
Format : AC-3
Format/Info : Audio Coding 3
Codec ID : A_AC3
Duration : 1 h 41 min
Bit rate mode : Constant
Bit rate : 384 kb/s
Channel(s) : 6 channels
Channel positions : Front: L C R, Side: L R, LFE
Sampling rate : 48.0 kHz
Frame rate : 31.250 FPS (1536 SPF)
Bit depth : 16 bits
Compression mode : Lossy
Stream size : 279 MiB (3%)
Title : MVO DDV
Language : Russian
Service kind : Complete Main
Default : No
Forced : No

Audio #4
ID : 5
Format : AC-3
Format/Info : Audio Coding 3
Codec ID : A_AC3
Duration : 1 h 41 min
Bit rate mode : Constant
Bit rate : 384 kb/s
Channel(s) : 6 channels
Channel positions : Front: L C R, Side: L R, LFE
Sampling rate : 48.0 kHz
Frame rate : 31.250 FPS (1536 SPF)
Bit depth : 16 bits
Compression mode : Lossy
Stream size : 279 MiB (3%)
Title : MVO
Language : Russian
Service kind : Complete Main
Default : No
Forced : No

Audio #5
ID : 6
Format : AC-3
Format/Info : Audio Coding 3
Codec ID : A_AC3
Duration : 1 h 41 min
Bit rate mode : Constant
Bit rate : 192 kb/s
Channel(s) : 2 channels
Channel positions : Front: L R
Sampling rate : 48.0 kHz
Frame rate : 31.250 FPS (1536 SPF)
Bit depth : 16 bits
Compression mode : Lossy
Stream size : 139 MiB (2%)
Title : MVO ОРТ
Language : Russian
Service kind : Complete Main
Default : No
Forced : No

Audio #6
ID : 7
Format : AC-3
Format/Info : Audio Coding 3
Codec ID : A_AC3
Duration : 1 h 41 min
Bit rate mode : Constant
Bit rate : 192 kb/s
Channel(s) : 2 channels
Channel positions : Front: L R
Sampling rate : 48.0 kHz
Frame rate : 31.250 FPS (1536 SPF)
Bit depth : 16 bits
Compression mode : Lossy
Stream size : 139 MiB (2%)
Title : DVO HTB
Language : Russian
Service kind : Complete Main
Default : No
Forced : No

Audio #7
ID : 8
Format : AC-3
Format/Info : Audio Coding 3
Codec ID : A_AC3
Duration : 1 h 41 min
Bit rate mode : Constant
Bit rate : 448 kb/s
Channel(s) : 6 channels
Channel positions : Front: L C R, Side: L R, LFE
Sampling rate : 48.0 kHz
Frame rate : 31.250 FPS (1536 SPF)
Bit depth : 16 bits
Compression mode : Lossy
Stream size : 325 MiB (4%)
Title : AVO Сербин
Language : Russian
Service kind : Complete Main
Default : No
Forced : No

Audio #8
ID : 9
Format : AC-3
Format/Info : Audio Coding 3
Codec ID : A_AC3
Duration : 1 h 41 min
Bit rate mode : Constant
Bit rate : 448 kb/s
Channel(s) : 6 channels
Channel positions : Front: L C R, Side: L R, LFE
Sampling rate : 48.0 kHz
Frame rate : 31.250 FPS (1536 SPF)
Bit depth : 16 bits
Compression mode : Lossy
Stream size : 325 MiB (4%)
Title : AVO Живов
Language : Russian
Service kind : Complete Main
Default : No
Forced : No

Audio #9
ID : 10
Format : AC-3
Format/Info : Audio Coding 3
Codec ID : A_AC3
Duration : 1 h 41 min
Bit rate mode : Constant
Bit rate : 192 kb/s
Channel(s) : 2 channels
Channel positions : Front: L R
Sampling rate : 48.0 kHz
Frame rate : 31.250 FPS (1536 SPF)
Bit depth : 16 bits
Compression mode : Lossy
Stream size : 139 MiB (2%)
Title : AVO Визгунов
Language : Russian
Service kind : Complete Main
Default : No
Forced : No

Audio #10
ID : 11
Format : AC-3
Format/Info : Audio Coding 3
Codec ID : A_AC3
Duration : 1 h 41 min
Bit rate mode : Constant
Bit rate : 640 kb/s
Channel(s) : 6 channels
Channel positions : Front: L C R, Side: L R, LFE
Sampling rate : 48.0 kHz
Frame rate : 31.250 FPS (1536 SPF)
Bit depth : 16 bits
Compression mode : Lossy
Stream size : 464 MiB (6%)
Title : Eng
Language : English
Service kind : Complete Main
Default : No
Forced : No

Text #1
ID : 12
Format : UTF-8
Codec ID : S_TEXT/UTF8
Codec ID/Info : UTF-8 Plain Text
Title : Rus full
Language : Russian
Default : No
Forced : No

Text #2
ID : 13
Format : UTF-8
Codec ID : S_TEXT/UTF8
Codec ID/Info : UTF-8 Plain Text
Title : Eng full
Language : English
Default : No
Forced : No

Menu
00:00:00.000 : :Chapter 01
00:00:50.133 : :Chapter 02
00:02:39.284 : :Chapter 03
00:04:50.414 : :Chapter 04
00:07:56.893 : :Chapter 05
00:12:10.354 : :Chapter 06
00:15:35.934 : :Chapter 07
00:18:15.219 : :Chapter 08
00:21:30.372 : :Chapter 09
00:25:00.831 : :Chapter 10
00:29:01.030 : :Chapter 11
00:36:24.556 : :Chapter 12
00:39:41.670 : :Chapter 13
00:42:41.850 : :Chapter 14
00:45:38.527 : :Chapter 15
00:50:59.473 : :Chapter 16
00:52:52.252 : :Chapter 17
00:56:08.281 : :Chapter 18
01:00:15.028 : :Chapter 19
01:05:48.653 : :Chapter 20
01:09:06.015 : :Chapter 21
01:10:51.956 : :Chapter 22
01:17:09.666 : :Chapter 23
01:20:50.470 : :Chapter 24
01:23:53.987 : :Chapter 25
01:30:26.629 : :Chapter 26
01:31:34.863 : :Chapter 27
01:41:24.828 : :Chapter 28
Прежде чем скачивать фильм полностью, скачайте "сэмпл", и проверьте будет ли воспроизводится видео на вашем устройстве!

Q: Присутствуют ли артефакты на изображении?
A: Да, есть, и будут, какие настройки скритпа не вписывай они будут постоянно! Так как это дорисованные кадры из исходных + Видео ряд обработан фильтром "Sharp"

Q: У меня не запускается видео на компьютере?
A: Обновите кодеки. (попробуйте другие видео проигрыватели)

Q: У меня идет рассинхрон звука и видео?
A: Проблема в мощности компьютера. (возможно также нужно обновить кодеки)

Q: Что нужно для воспроизведения данного видео.
A: Что рекомендуется для воспроизведения мной:
Процессор: 4х ядерный
Видео карта: минимум 512Мб. И желательно включить обработку изображения с помощью видео карты. (Деинтерлейсинг, подавление блочности и т.д.)
ОЗУ: 2-4Гб

Проигрыватели.
MPC-HC (Media Player Classic - Home Cinema)
The KMPlayer (Korean Multimedia Player) (оптимальный вариант)
Mirillis Splash PRO (Если что то проигрыватель сам может преобразовывать видео вплоть до частоты кадров монитора. Или тех же 60fps.)
^Прежде чем отписывать комментарии по качеству, прочитайте спойлер!

pb.wtf



Скачать Смертельная битва через торрент http://img11.lostpic.net/2017/05/30/bd597658f7bd7435a941404ccbd290a3.png Скачать фильм Смертельная битва через торрент бесплантно в хорошем качестве Описание:Несколько столетий назад Шанг Тсунг — маг из потустороннего мира захватил в свои руки древний воинский турнир. Его цель — ... 10 10 19
Info! Золотая раздача, скачанное не засчитывается.
Торрент: Зарегистрирован [2018-01-24 14:33] · скачан: 404 раз
Статус: √ проверено
Размер: 7.91 GB
Как cкачать? Как скачать Смертельная битва через торрент | UTorrent

% Раздел Тема Автор DL S | L
Фильмы [HD 720p, 1080p] (Хороший звук DUB, MVO) [ 12.98 GB ] Смертельная битва / Mortal Kombat [1995 BDRip-HEVC 1080p ] 4xMVO+DVO+4xAVO+VO+MVO bober100 Скачать
1 | 0
Фильмы (HD 720p, 1080p) (48-60 fps) [ 5.96 GB ] Смертельная битва 2: Истребление / Mortal Kombat: Annihilation [1997 BDRip 720p 60 fps от еnvy / NNNB] DVO MVO AVO еnvy Скачать
19 | 1
Сборники (HD Video) [ 11.81 GB ] Смертельная битва. Дилогия / Mortal Kombat. Dilogy [1995-1997 BDRip 720p] [MVO DVO AVO] Kavasar Скачать
1 | 0


Последний раз редактировалось: еnvy (2018-01-24 14:58), всего редактировалось 1 раз

28-11-2019 20:33  

Отключить всю рекламу на сайте

24-01-2018 14:36 Смертельная битва Скачать торрент  

Торрент файл перезалит!pb.wtf



24-01-2018 14:59 Смертельная битва Скачать торрент  

schultz, Исправил. забываю я про это введение.)))pb.wtf



24-01-2018 15:01 Смертельная битва Скачать торрент  

еnvy, yespb.wtf



06-03-2018 14:36 Смертельная битва Скачать торрент  

вот бы скорости на раздачу pb.wtf



06-03-2018 19:26 Смертельная битва Скачать торрент  

Спасибо за отличный рип,и кодек x264 pb.wtf



    Дорогой пользователь! Огромная просьба, поблагодарите релизера, оцените раздачу и оставьте свои комментарий, если Вы скачали Смертельная битва через торрент бесплатно! Внесите свою лепту в развитие PiratBit!
    Комментировать посты могут только пользователи прошедшие не сложную регистрацию
    Показать сообщения:    

    Смертельная битва через торрент
    Скачать бесплатно Смертельная битва
    Смертельная битва скачать торрент
    Смертельная битва смотреть онлайн
    Cкачать фильм Смертельная битва бесплатно
    Смертельная битва скачать торрент в хорошем качестве
    Смертельная битва смотреть онлайн бесплатно в хорошем качестве


    Вы не можете начинать темы
    Вы не можете отвечать на сообщения
    Вы не можете редактировать свои сообщения
    Вы не можете удалять свои сообщения
    Вы не можете голосовать в опросах
    Вы не можете прикреплять файлы к сообщениям
    Вы можете скачивать файлы