Ссылка на приватное зеркало всего за 1$. Внимание количество ограничено!!!

OK

1+1

iTunes

мы

OK

1

WEB-DLRip

Джокер

Пифагор

Ведьмак / The Witcher сериал

iTunes

ПШазам

ОК

Оно 2

iTunes

30
pack

Вам бонус

ВАЖНО

!!Акция!!

Alien_RageХит недели

RePack

Resident Evil 21

ИГРА 18+

pack

RePack

jed

RePack

fifa19

RePack

Assassins Creed: Odyssey

RePack

NEED FOR SPEED™ PAYBACK

4 сезон

9 сезон

Бесстыжие 9 сезон

Все сериалы

все сериалы на PB.wtf

RePack

FAR CRY 5
  

Крёстная мать кокаина / Cocaine Godmother (Гильермо Наварро) [2017, драма, биография, WEBRip 720p] MVO ["Синема УС] pb.wtf

Крёстная мать кокаина через торрент pb.wtf

Размер: 3.06 GB | Добавлен: 2 года назад | Торрент скачан:350 раз
Скачать  

24-01-2018 14:31 Крёстная мать кокаина Скачать торрент  

Крёстная мать кокаина / Cocaine GodmotherГод выпуска: 2017
Страна: США
Жанр: драма, биография
Продолжительность: 01:40:02
Перевод: Любительский (многоголосый) ["Синема УС]
Субтитры: отсутствуют

Режиссер: Гильермо Наварро

rating

В ролях:

Кэтрин Зета-Джонс, Рауль Мендес, Хуан Пабло Эспиноза, Маттео Стефан, Хосе Джулиан, Дженни Пеллисер, Кэролайн Мэтьюз, Джорджия Браднер, Уоррен Кристи

Описание:

История жизни колумбийской наркобаронессы Грисельды Бланко. На своем жизненном пути Грисельда сталкивалась со многими трудностями, не только в бизнесе, но и в семье. Впрочем, это не помешало ей стать одним из крупнейших криминальных авторитетов штата Флорида 1970-1980-х годов.

Качество: WEBRip 720p
Формат: MKV

Видео: 3989 kb/s, 1280x720
Аудио#1: AC3, 2 ch, 384 kbps

скриншот  скриншот  скриншот  

Общее
Уникальный идентификатор : 251342598295341264034486485476146593576 (0xBD16D2D9CA31F4CDBCE6E3D4A762BF28)
Полное имя : D:\Cocaine.Godmother.The.Griselda.Blanco.Story.2018.P.HDTV.72Op.mkv
Формат : Matroska
Версия формата : Version 2
Размер файла : 3,06 Гбайт
Продолжительность : 1 ч. 40 м.
Режим общего битрейта : Переменный
Общий поток : 4375 Кбит/сек
Дата кодирования : UTC 2018-01-24 10:49:32
Программа кодирования : mkvmerge v8.3.0 ('Over the Horizon') 64bit
Библиотека кодирования : libebml v1.3.1 + libmatroska v1.4.2

Видео
Идентификатор : 1
Формат : AVC
Формат/Информация : Advanced Video Codec
Профиль формата : High@L4.1
Параметр CABAC формата : Да
Параметр ReFrames формата : 4 кадра
Идентификатор кодека : V_MPEG4/ISO/AVC
Продолжительность : 1 ч. 40 м.
Вид битрейта : Переменный
Битрейт : 3989 Кбит/сек
Максимальный битрейт : 4500 Кбит/сек
Ширина : 1280 пикселей
Высота : 720 пикселей
Соотношение сторон : 16:9
Режим частоты кадров : Постоянный
Частота кадров : 23,976 (24000/1001) кадра/сек
Стандарт вещания : Component
Цветовое пространство : YUV
Субдискретизация насыщенности : 4:2:0
Битовая глубина : 8 бит
Тип развёртки : Прогрессивная
Бит/(Пиксели*Кадры) : 0.177
Размер потока : 2,73 Гбайт (89%)
Default : Да
Forced : Нет
Цветовой диапазон : Limited
Основные цвета : BT.709
Характеристики трансфера : BT.709
Коэффициенты матрицы : BT.709

Аудио
Идентификатор : 2
Формат : AC-3
Формат/Информация : Audio Coding 3
Расширение режима : CM (complete main)
Параметр Endianness формата : Big
Идентификатор кодека : A_AC3
Продолжительность : 1 ч. 40 м.
Вид битрейта : Постоянный
Битрейт : 384 Кбит/сек
Каналы : 2 канала
Расположение каналов : Front: L R
Частота : 48,0 КГц
Частота кадров : 31,250 кадров/сек (1536 spf)
Метод сжатия : С потерями
Размер потока : 275 Мбайт (9%)
Default : Да
Forced : Нет

pb.wtf



Скачать Крёстная мать кокаина через торрент http://img12.lostpic.net/2018/01/24/dcfa81eb5e44615c5923ef44927690d0.jpg Скачать фильм Крёстная мать кокаина через торрент бесплантно в хорошем качестве Описание: История жизни колумбийской наркобаронессы Грисельды Бланко. На своем жизненном пути Грисельда сталкивалась со многими ... 8.2 10 5
Торрент: Зарегистрирован [2018-01-24 14:31] · скачан: 350 раз
Статус: T временная
Размер: 3.06 GB
Как cкачать? Как скачать Крёстная мать кокаина через торрент | qTorrent

% Раздел Тема Автор DL S | L
T Фильмы (мультфильмы) cо спонсором показа (Новинки AVI/MKV) [ 1.37 GB ] Крёстная мать кокаина / Cocaine Godmother [2017 биография WEBRip] MVO ["Синема УС] bober100 Скачать
1 | 0

28-11-2019 20:33  

Отключить всю рекламу на сайте

24-01-2018 18:14 Крёстная мать кокаина Скачать торрент  

это жопа какая то я такое не хочу смотретьpb.wtf



24-01-2018 18:42 Крёстная мать кокаина Скачать торрент  

kraz80 писал(а):

это жопа какая то я такое не хочу смотреть

Жопа это твой комментарий! По существу ничего не написал и как я понимаю даже и не смотрел данный фильм. Но пиз*ануть какую-то хуню надо да?pb.wtf
!schultz писал(а):

О-о полегче, устное за мат



24-01-2018 19:30 Крёстная мать кокаина Скачать торрент  

Даже не смотрел представляешь решил не тратить время.прочел название фильма не для меня это кино.это жопа.pb.wtf



24-01-2018 21:04 Крёстная мать кокаина Скачать торрент  

kraz80 писал(а):

Даже не смотрел представляешь решил не тратить время.прочел название фильма не для меня это кино.это жопа.

В таком случае, свое мнение оставь при себе!pb.wtf



24-01-2018 21:27 Крёстная мать кокаина Скачать торрент  

kraz80 писал(а):

Даже не смотрел представляешь решил не тратить время.прочел название фильма не для меня это кино.это жопа.

Фильм основан на реальных событиях! А это уже повод его посмотреть. Потом все кто замешан в торговле наркотиками это очень жёсткие люди и думаю что в фильме будет много таких моментов. Ну и лично мне нравятся фильмы такого плана! А ты видимо слишком нежный и не хочешь осознавать что в этом мире творится пздц и с помощью таких фильмов ты можешь взглянуть на это.pb.wtf



24-01-2018 22:16 Крёстная мать кокаина Скачать торрент  

надо обязательно посмотреть ведь она входила в топ 10 самых опасных бандитов 20 века и была даже покруче главы секты аум сенрикёpb.wtf



25-01-2018 14:51 Крёстная мать кокаина Скачать торрент  

wv, а можете оставлять комментарии, без нарушения правил форума, как-то употребления завуалированного мата? да и суть комментариев по фильму должна быть ваша оценка сюжета и качества
раздачи.pb.wtf



25-01-2018 17:09 Крёстная мать кокаина Скачать торрент  

mrAmerica, ...ну данный пост в тему, тока чувак переборщил, видать тронуло очень pb.wtf



17-03-2019 12:12 Крёстная мать кокаина Скачать торрент  

Фильм понравился. На основе реальных событий.
Жестокость колумбийской наркобаронессы Грисельды Бланко поражает.
Поражает ещё - её и не убили!
.
Ну а Кэтрин Зета-Джонс - на высоте!
.pb.wtf



    Дорогой пользователь! Огромная просьба, поблагодарите релизера, оцените раздачу и оставьте свои комментарий, если Вы скачали Крёстная мать кокаина через торрент бесплатно! Внесите свою лепту в развитие PiratBit!
    Комментировать посты могут только пользователи прошедшие не сложную регистрацию
    Показать сообщения:    

    Крёстная мать кокаина через торрент
    Скачать бесплатно Крёстная мать кокаина
    Крёстная мать кокаина скачать торрент
    Крёстная мать кокаина смотреть онлайн
    Cкачать фильм Крёстная мать кокаина бесплатно
    Крёстная мать кокаина скачать торрент в хорошем качестве
    Крёстная мать кокаина смотреть онлайн бесплатно в хорошем качестве


    Вы не можете начинать темы
    Вы не можете отвечать на сообщения
    Вы не можете редактировать свои сообщения
    Вы не можете удалять свои сообщения
    Вы не можете голосовать в опросах
    Вы не можете прикреплять файлы к сообщениям
    Вы можете скачивать файлы