MEGA SALE -50% FORZA HORIZON 4 ULTIMATE+ВСЕ DLC+ОНЛАЙН всего за 599р. 299 руб. (супер цена). Внимание количество ограничено!!!

iTunes

1+1

iTunes

мы

iTunes

1

iTunes

Чернобыль

iTunes

Ральф против интернета

Лицензия

ПШазам

Лицензия

Игра престолов

Лицензия

30
pack

ВАЖНО

!!Акция!!

Alien_RageХит недели

RePack

Resident Evil 21

ИГРА 18+

pack

RePack

Metro:Exodus

!!Акция!!

Alien_Rage

RePack

fifa19

RePack

Assassins Creed: Odyssey

RePack

NEED FOR SPEED™ PAYBACK

3 сезон

9 сезон

Бесстыжие 9 сезон

Все сериалы

все сериалы на PB.wtf

RePack

FAR CRY 5
Ребята, катастрофически не хватает 7730р. для оплаты серверов за АВГУСТ (всвязи с блокировками трафик упал в 3 раза), 1-2р., выручайте.
  

Прощай, Кристофер Робин / Goodbye Christopher Robin (Саймон Кёртис) [2017, семейный, биография, история, BD Remux 1080p] MVO [Лицензия / iTunes] pb.wtf

Прощай, Кристофер Робин через торрент pb.wtf

Размер: 24.66 GB | Добавлен: 1 год 7 мес. назад | Торрент скачан:41 раз
Скачать  

24-01-2018 16:34 Прощай, Кристофер Робин Скачать торрент  

Прощай, Кристофер Робин / Goodbye Christopher RobinГод выпуска: 2017
Страна: Великобритания
Жанр: семейный, биография, история
Продолжительность: 01:47:28MVO
Перевод: Профессиональный многоголосый - [Лицензия / iTunes]
Субтитры: Русские, английские

Режиссер: Саймон Кёртис

rating

В ролях:

Донал Глисон, Марго Робби, Келли Макдоналд, Вики Пеппердин, Уилл Тилстон, Алекс Лоутер, Стивен Кэмпбелл Мур, Ричард МакКейб

Описание:

Картина расскажет о взаимоотношениях между А. А. Милном и его сыном Кристофером Робином, чьи игрушки вдохновили писателя на создание волшебного мира повестей о Винни-Пухе...

Качество: BD Remux 1080p
Формат: MKV

Видео: MPEG-4 AVC, 29,1 Мбит/с, 1920x1080
Аудио#1: Русский (AC3, 6 ch, 384 Кбит/с)
Аудио#2: английский (DTS, 6 ch, 3529 Кбит/сек)
скриншот   скриншот   скриншот  

General
Unique ID : 204739982776128928558353230832822469579 (0x9A077C825D06A9A9922B750F4A1143CB)
Complete name : G:VideoSSDGoodbye.Christopher.Robin.2017.BDREMUX.1080p.ExKinoRay.mkv
Format : Matroska
Format version : Version 4 / Version 2
File size : 24.7 GiB
Duration : 1 h 47 min
Overall bit rate mode : Variable
Overall bit rate : 33.0 Mb/s
Movie name : Goodbye Christopher Robin 2017 from ExKinoRay
Encoded date : UTC 2018-01-16 10:48:33
Writing application : mkvmerge v20.0.0 ('I Am The Sun') 64-bit
Writing library : libebml v1.3.5 + libmatroska v1.4.8

Video
ID : 1
Format : AVC
Format/Info : Advanced Video Codec
Format profile : High@L4.1
Format settings : CABAC / 4 Ref Frames
Format settings, CABAC : Yes
Format settings, ReFrames : 4 frames
Codec ID : V_MPEG4/ISO/AVC
Duration : 1 h 47 min
Bit rate mode : Variable
Bit rate : 29.1 Mb/s
Maximum bit rate : 31.0 Mb/s
Width : 1 920 pixels
Height : 1 080 pixels
Display aspect ratio : 16:9
Frame rate mode : Constant
Frame rate : 23.976 (24000/1001) FPS
Color space : YUV
Chroma subsampling : 4:2:0
Bit depth : 8 bits
Scan type : Progressive
Bits/(Pixel*Frame) : 0.585
Stream size : 21.7 GiB (88%)
Language : English
Default : Yes
Forced : No

Audio #1
ID : 2
Format : AC-3
Format/Info : Audio Coding 3
Codec ID : A_AC3
Duration : 1 h 46 min
Bit rate mode : Constant
Bit rate : 384 kb/s
Channel(s) : 6 channels
Channel positions : Front: L C R, Side: L R, LFE
Sampling rate : 48.0 kHz
Frame rate : 31.250 FPS (1536 SPF)
Bit depth : 16 bits
Compression mode : Lossy
Stream size : 294 MiB (1%)
Title : MVO
Language : Russian
Service kind : Complete Main
Default : Yes
Forced : No

Audio #2
ID : 3
Format : DTS
Format/Info : Digital Theater Systems
Format profile : MA / Core
Codec ID : A_DTS
Duration : 1 h 47 min
Bit rate mode : Variable / Constant
Bit rate : 3 529 kb/s / 1 509 kb/s
Channel(s) : 6 channels
Channel positions : Front: L C R, Side: L R, LFE
Sampling rate : 48.0 kHz
Frame rate : 93.750 FPS (512 SPF)
Bit depth : 24 bits
Compression mode : Lossless / Lossy
Stream size : 2.64 GiB (11%)
Title : Original
Language : English
Default : No
Forced : No

Text #1
ID : 4
Format : UTF-8
Codec ID : S_TEXT/UTF8
Codec ID/Info : UTF-8 Plain Text
Duration : 1 h 39 min
Bit rate : 101 b/s
Count of elements : 1414
Stream size : 74.0 KiB (0%)
Title : Full
Language : Russian
Default : No
Forced : No

Text #2
ID : 5
Format : UTF-8
Codec ID : S_TEXT/UTF8
Codec ID/Info : UTF-8 Plain Text
Duration : 1 h 40 min
Bit rate : 63 b/s
Count of elements : 1669
Stream size : 46.7 KiB (0%)
Title : Full
Language : English
Default : No
Forced : No

Menu
00:00:00.000 : en:Chapter 1
00:04:03.952 : en:Chapter 2
00:07:01.171 : en:Chapter 3
00:10:32.632 : en:Chapter 4
00:13:40.528 : en:Chapter 5
00:16:48.591 : en:Chapter 6
00:20:43.409 : en:Chapter 7
00:25:44.793 : en:Chapter 8
00:30:36.752 : en:Chapter 9
00:35:25.582 : en:Chapter 10
00:40:50.740 : en:Chapter 11
00:48:22.108 : en:Chapter 12
00:52:32.733 : en:Chapter 13
00:57:53.595 : en:Chapter 14
01:03:35.812 : en:Chapter 15
01:07:38.513 : en:Chapter 16
01:12:43.859 : en:Chapter 17
01:18:55.731 : en:Chapter 18
01:21:45.609 : en:Chapter 19
01:25:16.653 : en:Chapter 20
01:29:10.428 : en:Chapter 21
01:32:27.917 : en:Chapter 22
01:35:55.917 : en:Chapter 23
01:41:03.266 : en:Chapter 24

pb.wtf



Скачать Прощай, Кристофер Робин через торрент http://img12.lostpic.net/2017/12/28/9fd6cceaba2faecf946bd826e5e2ee4e.png Скачать фильм Прощай, Кристофер Робин через торрент бесплантно в хорошем качестве Описание: Картина расскажет о взаимоотношениях между А. А. Милном и его сыном Кристофером Робином, чьи игрушки вдохновили писателя на ... 10 10 7
Info! Серебряная раздача, засчитывается только 50% скачанного.
Торрент: Зарегистрирован [2018-01-24 16:34] · скачан: 41 раз
Статус: √ проверено
Размер: 24.66 GB
Как cкачать? Как скачать Прощай, Кристофер Робин через торрент | qTorrent

% Раздел Тема Автор DL S | L
Фильмы 2017 [DVDrip, WEB-DLRip, HDrip] (DUB, MVO) [ 1.46 GB ] Прощай Кристофер Робин / Goodbye Christopher Robin [2017 биография история BDRip] MVO [] Twi7ter Скачать
2 | 0
Фильмы 2017 [DVDrip, WEB-DLRip, HDrip] (DUB, MVO) [ 747 MB ] Прощай Кристофер Робин / Goodbye Christopher Robin [2017 биография история HDRip] MVO [] Loc387 Скачать
1 | 0
Фильмы [HD 720p, 1080p] (Хороший звук DUB, MVO) [ 7.85 GB ] Прощай Кристофер Робин / Goodbye Christopher Robin [2017 биография история BDRip 720p] MVO [] bober100 Скачать
1 | 0
Фильмы [HD 720p, 1080p] (Хороший звук DUB, MVO) [ 13.33 GB ] Прощай Кристофер Робин / Goodbye Christopher Robin [2017 биография история BDRip 1080p] MVO [] bober100 Скачать
1 | 0
Фильмы 2017 [DVDrip, WEB-DLRip, HDrip] (DUB, MVO) [ 1.46 GB ] Прощай Кристофер Робин / Goodbye Christopher Robin [2017 биография история BDRip] MVO [] bober100 Скачать
1 | 0
Фильмы 2017 [DVDrip, WEB-DLRip, HDrip] (DUB, MVO) [ 2.37 GB ] Прощай Кристофер Робин / Goodbye Christopher Robin [2017 биография история BDRip-AVC] MVO [] bober100 Скачать
1 | 0
Фильмы (WEB-DL 720p, 1080p) [ 4.41 GB ] Прощай Кристофер Робин / Goodbye Christopher Robin [2017 биография история WEB-DL 1080p] MVO WorldSM Скачать
1 | 0


>> Регистрируемся здесь <<






Отзывы и комментарии о схеме читаем и пишем здесь: ---> Отзывы и комментарии о схеме

Новые благодарочки в телеграм довольных пользователей:
скриншот   скриншот   скриншот   скриншот   скриншот
    Дорогой пользователь! Огромная просьба, поблагодарите релизера, оцените раздачу и оставьте свои комментарий, если Вы скачали Прощай, Кристофер Робин через торрент бесплатно! Внесите свою лепту в развитие PiratBit!
    Комментировать посты могут только пользователи прошедшие не сложную регистрацию
    Показать сообщения:    

    Прощай, Кристофер Робин через торрент
    Скачать бесплатно Прощай, Кристофер Робин
    Прощай, Кристофер Робин скачать торрент
    Прощай, Кристофер Робин смотреть онлайн
    Cкачать фильм Прощай, Кристофер Робин бесплатно
    Прощай, Кристофер Робин скачать торрент в хорошем качестве
    Прощай, Кристофер Робин смотреть онлайн бесплатно в хорошем качестве


    Вы не можете начинать темы
    Вы не можете отвечать на сообщения
    Вы не можете редактировать свои сообщения
    Вы не можете удалять свои сообщения
    Вы не можете голосовать в опросах
    Вы не можете прикреплять файлы к сообщениям
    Вы можете скачивать файлы