MEGA SALE -50% FORZA HORIZON 4 ULTIMATE+ВСЕ DLC+ОНЛАЙН всего за 599р. 299 руб. (супер цена). Внимание количество ограничено!!!

iTunes

1+1

iTunes

мы

iTunes

1

iTunes

Чернобыль

iTunes

Ральф против интернета

Лицензия

ПШазам

Лицензия

Игра престолов

Лицензия

30
pack

ВАЖНО

!!Акция!!

Alien_RageХит недели

RePack

Resident Evil 21

ИГРА 18+

pack

RePack

Metro:Exodus

!!Акция!!

Alien_Rage

RePack

fifa19

RePack

Assassins Creed: Odyssey

RePack

NEED FOR SPEED™ PAYBACK

3 сезон

9 сезон

Бесстыжие 9 сезон

Все сериалы

все сериалы на PB.wtf

RePack

FAR CRY 5
Ребята, катастрофически не хватает 7730р. для оплаты серверов за АВГУСТ (всвязи с блокировками трафик упал в 3 раза), 1-2р., выручайте.
  

Ассоциация злоумышленников / Association de malfaiteurs (Клод Зиди) [1987 г, комедия, детектив, приключения, HDTVRip] DUB pb.wtf

Ассоциация злоумышленников через торрент pb.wtf

Размер: 1.45 GB | Добавлен: 1 год 7 мес. назад | Торрент скачан:17 раз
Скачать  

24-01-2018 18:35 Ассоциация злоумышленников Скачать торрент  

Ассоциация злоумышленников / Association de malfaiteurs
Год выпуска: 1987
Страна: Франция
Жанр: комедия, детектив, приключения
Продолжительность: 01:43:14
Перевод: Дубляж

Режиссер: Клод Зиди

rating

В ролях: Франсуа Клюзе, Кристоф Малавуа, Жан-Пьер Биссон, Клер Небу, Жерар ЛеКейон, Жан-Клод Легэ, Вероник Жене, Юбер Дешам, Роже Дюма, Люба Герчикофф, Натали Кребс, Жан-Мари Хуан, Дидье Каминка, Ана Падряо, Жак Писиас, Франсуа Римбо, Патриция Мальвуазен, Хаким Ганем, Роже Берто, Бруно Журни

Описание: Три приятеля, выпускники Высшего коммерческого училища, вполне преуспевающие в жизни и бизнесе, подшутили над четвертым после встречи выпускников. Зная его репутацию вечного неудачника, они смонтировали на видеокассете выигрыш купленного им лотерейного билета. А тот, приняв розыгрыш за действительность, взял и заложил магазинчик матери, чтобы купить землю и построить Луна-парк. Поняв, что никаких денег он не выиграет, Даниэль обращается за помощью к выпускнику их училища Бернару Асслеру, который собирался обмануть незадачливого предпринимателя.

Качество: HDTVRip
Формат: AVI
Видео: XviD, 1809 Кбит/с, 720x432, 25 Кадр/с
Аудио: AC3, 2 ch, 192 Кбит/с
Релиз от: Koenig
скриншот   скриншот   скриншот   скриншот   скриншот   скриншот  

Общее
Полное имя : Association.de.malfaiteurs.1987.HDTVRip.avi
Формат : AVI
Формат/Информация : Audio Video Interleave
Размер файла : 1,45 Гбайт
Продолжительность : 1 ч. 43 м.
Общий поток : 2011 Кбит/сек
Программа кодирования : VirtualDubMod 1.5.10.2 (build 2540/release)
Библиотека кодирования : VirtualDubMod build 2540/release

Видео
Идентификатор : 0
Формат : MPEG-4 Visual
Профиль формата : Advanced Simple@L5
Параметр BVOP формата : 1
Параметр QPel формата : Нет
Параметр GMC формата : Без точки перехода
Параметр матрицы формата : Выборочная
Идентификатор кодека : XVID
Идентификатор кодека/Подсказка : XviD
Продолжительность : 1 ч. 43 м.
Битрейт : 1809 Кбит/сек
Ширина : 720 пикселей
Высота : 432 пикселя
Соотношение сторон : 5:3
Частота кадров : 25,000 кадров/сек
Цветовое пространство : YUV
Субдискретизация насыщенности : 4:2:0
Битовая глубина : 8 бит
Тип развёртки : Прогрессивная
Метод сжатия : С потерями
Бит/(Пиксели*Кадры) : 0.233
Размер потока : 1,30 Гбайт (90%)
Библиотека кодирования : XviD 65

Аудио
Идентификатор : 1
Формат : AC-3
Формат/Информация : Audio Coding 3
Параметр Endianness формата : Big
Идентификатор кодека : 2000
Продолжительность : 1 ч. 43 м.
Вид битрейта : Постоянный
Битрейт : 192 Кбит/сек
Каналы : 2 канала
Расположение каналов : Front: L R
Частота : 48,0 КГц
Частота кадров : 31,250 кадров/сек (1536 spf)
Битовая глубина : 16 бит
Метод сжатия : С потерями
Размер потока : 142 Мбайт (10%)
Выравнивание : Разделение по промежуткам
Продолжительность промежутка : 40 мс. (1,00 видеокадр)
Время предзагрузки промежутка : 500 мс.
ServiceKind/String : Complete Main

pb.wtf



Скачать Ассоциация злоумышленников через торрент http://img12.lostpic.net/2018/01/24/b2233dd66acbb636fd327ac85499f951.jpg Скачать фильм Ассоциация злоумышленников через торрент бесплантно в хорошем качестве Описание: Три приятеля, выпускники Высшего коммерческого училища, вполне преуспевающие в жизни и бизнесе, подшутили над четвертым после ... 10 10 1
Торрент: Зарегистрирован [2018-01-24 18:35] · скачан: 17 раз
Статус: √ проверено
Размер: 1.45 GB
Как cкачать? Как скачать Ассоциация злоумышленников через торрент | qTorrent


>> Регистрируемся здесь <<






Отзывы и комментарии о схеме читаем и пишем здесь: ---> Отзывы и комментарии о схеме

Новые благодарочки в телеграм довольных пользователей:
скриншот   скриншот   скриншот   скриншот   скриншот
    Дорогой пользователь! Огромная просьба, поблагодарите релизера, оцените раздачу и оставьте свои комментарий, если Вы скачали Ассоциация злоумышленников через торрент бесплатно! Внесите свою лепту в развитие PiratBit!
    Комментировать посты могут только пользователи прошедшие не сложную регистрацию
    Показать сообщения:    

    Ассоциация злоумышленников через торрент
    Скачать бесплатно Ассоциация злоумышленников
    Ассоциация злоумышленников скачать торрент
    Ассоциация злоумышленников смотреть онлайн
    Cкачать фильм Ассоциация злоумышленников бесплатно
    Ассоциация злоумышленников скачать торрент в хорошем качестве
    Ассоциация злоумышленников смотреть онлайн бесплатно в хорошем качестве


    Вы не можете начинать темы
    Вы не можете отвечать на сообщения
    Вы не можете редактировать свои сообщения
    Вы не можете удалять свои сообщения
    Вы не можете голосовать в опросах
    Вы не можете прикреплять файлы к сообщениям
    Вы можете скачивать файлы