Ссылка на приватное зеркало всего за 1$. Внимание количество ограничено!!!

OK

1+1

iTunes

мы

OK

1

WEB-DLRip

Джокер

Пифагор

Ведьмак / The Witcher сериал

iTunes

ПШазам

ОК

Оно 2

iTunes

30
pack

Вам бонус

ВАЖНО

!!Акция!!

Alien_RageХит недели

RePack

Resident Evil 21

ИГРА 18+

pack

RePack

jed

RePack

fifa19

RePack

Assassins Creed: Odyssey

RePack

NEED FOR SPEED™ PAYBACK

4 сезон

9 сезон

Бесстыжие 9 сезон

Все сериалы

все сериалы на PB.wtf

RePack

FAR CRY 5
  

Мертвые земли / Wastelander (Анджело Лопес) [2018, фантастика, боевик, приключения, WEB-DL 720p] MVO ["Синема УС"] pb.wtf

Мертвые земли через торрент pb.wtf

Размер: 2.77 GB | Добавлен: 2 года назад | Торрент скачан:229 раз
Скачать  

24-01-2018 19:59 Мертвые земли Скачать торрент  

Мертвые земли / WastelanderГод выпуска: 2018
Страна: США
Жанр: фантастика, боевик, приключения
Продолжительность: 01:29:44
Перевод: Любительский (многоголосый) ["Синема УС"]
Субтитры: отсутствуют

Режиссер: Анджело Лопес

rating

В ролях:

Брендан Мерфи, Джон Праудстар, Кэрол Карденас, Айк Стилстра, Луис Пимбер, Анджело Лопес, Джон Бернат

Описание:

Человечество оказывается на грани вымирания, небольшая группа выживших ищет свой путь в этом новом ужасном мире. А идеи возрождения человеческой расы поражают своим ужасом и беспринципностью.

Качество: WEB-DL 720p
Формат: MKV
Видео кодек: H.264
Аудио кодек: AC3

Видео: 4028 kb/s, 1280x720
Аудио#1: AC3, 2 ch, 384 kbps

скриншот  скриншот  скриншот  

Общее
Уникальный идентификатор : 178857929205710603250310864530088980624 (0x868EC8BF06D9C162B583EEA809C0F090)
Полное имя : D:\Wastelander 2018.P.WEB-DL.72Op_KOSHARA.mkv
Формат : Matroska
Версия формата : Version 2
Размер файла : 2,77 Гбайт
Продолжительность : 1 ч. 29 м.
Режим общего битрейта : Переменный
Общий поток : 4414 Кбит/сек
Дата кодирования : UTC 2018-01-24 17:26:11
Программа кодирования : mkvmerge v8.3.0 ('Over the Horizon') 64bit
Библиотека кодирования : libebml v1.3.1 + libmatroska v1.4.2

Видео
Идентификатор : 1
Формат : AVC
Формат/Информация : Advanced Video Codec
Профиль формата : High@L4.1
Параметр CABAC формата : Да
Параметр ReFrames формата : 4 кадра
Идентификатор кодека : V_MPEG4/ISO/AVC
Продолжительность : 1 ч. 29 м.
Вид битрейта : Переменный
Битрейт : 4028 Кбит/сек
Максимальный битрейт : 4500 Кбит/сек
Ширина : 1280 пикселей
Высота : 720 пикселей
Соотношение сторон : 16:9
Режим частоты кадров : Постоянный
Частота кадров : 23,976 (24000/1001) кадра/сек
Стандарт вещания : Component
Цветовое пространство : YUV
Субдискретизация насыщенности : 4:2:0
Битовая глубина : 8 бит
Тип развёртки : Прогрессивная
Бит/(Пиксели*Кадры) : 0.178
Размер потока : 2,47 Гбайт (89%)
Default : Да
Forced : Нет
Цветовой диапазон : Limited
Основные цвета : BT.709
Характеристики трансфера : BT.709
Коэффициенты матрицы : BT.709

Аудио
Идентификатор : 2
Формат : AC-3
Формат/Информация : Audio Coding 3
Расширение режима : CM (complete main)
Параметр Endianness формата : Big
Идентификатор кодека : A_AC3
Продолжительность : 1 ч. 29 м.
Вид битрейта : Постоянный
Битрейт : 384 Кбит/сек
Каналы : 2 канала
Расположение каналов : Front: L R
Частота : 48,0 КГц
Частота кадров : 31,250 кадров/сек (1536 spf)
Метод сжатия : С потерями
Размер потока : 246 Мбайт (9%)
Default : Да
Forced : Нет

pb.wtf



Скачать Мертвые земли через торрент http://img12.lostpic.net/2018/01/24/11ae59755c793da1c7b0104210eb1ba5.jpg Скачать фильм Мертвые земли через торрент бесплантно в хорошем качестве Описание: Человечество оказывается на грани вымирания, небольшая группа выживших ищет свой путь в этом новом ужасном мире. А идеи ... 9.7 10 6
Торрент: Зарегистрирован [2018-01-24 19:59] · скачан: 229 раз
Статус: T временная
Размер: 2.77 GB
Как cкачать? Как скачать Мертвые земли через торрент | qTorrent

% Раздел Тема Автор DL S | L
T Фильмы (мультфильмы) cо спонсором показа (Новинки AVI/MKV) [ 1.37 GB ] Мертвые земли / Wastelander [2018 WEB-DLRip] MVO ["Синема УС"] bober100 Скачать
1 | 0

28-11-2019 20:33  

Отключить всю рекламу на сайте

24-01-2018 20:57 Мертвые земли Скачать торрент  

О М Гpb.wtf



24-01-2018 21:40 Мертвые земли Скачать торрент  

Порно?pb.wtf



25-01-2018 06:12 Мертвые земли Скачать торрент  

Экранизация Wasteland? pb.wtf



25-01-2018 08:34 Мертвые земли Скачать торрент  

про гомосеков???pb.wtf



25-01-2018 11:54 Мертвые земли Скачать торрент  

оч на порно похоже по скринам))pb.wtf



    Дорогой пользователь! Огромная просьба, поблагодарите релизера, оцените раздачу и оставьте свои комментарий, если Вы скачали Мертвые земли через торрент бесплатно! Внесите свою лепту в развитие PiratBit!
    Комментировать посты могут только пользователи прошедшие не сложную регистрацию
    Показать сообщения:    

    Мертвые земли через торрент
    Скачать бесплатно Мертвые земли
    Мертвые земли скачать торрент
    Мертвые земли смотреть онлайн
    Cкачать фильм Мертвые земли бесплатно
    Мертвые земли скачать торрент в хорошем качестве
    Мертвые земли смотреть онлайн бесплатно в хорошем качестве


    Вы не можете начинать темы
    Вы не можете отвечать на сообщения
    Вы не можете редактировать свои сообщения
    Вы не можете удалять свои сообщения
    Вы не можете голосовать в опросах
    Вы не можете прикреплять файлы к сообщениям
    Вы можете скачивать файлы