Ссылка на приватное зеркало нашего сайта всего за 1$. Внимание количество ограничено!!!

2 сезон

iTunes

1 сезон

1

2 сезон

2 сезон

iTunes

1 сезон

RePack

30

Ultimate

ВАЖНО

ИГРА 18+

pack

RePack

MK11
pack

Забери бонус

RePack

jed

!!Акция!!

Alien_Rage

RePack

fifa19

RePack

Assassins Creed: Odyssey

RePack

NEED FOR SPEED™ PAYBACK

4 сезон

9 сезон

Бесстыжие 9 сезон

Все сериалы

все сериалы на PB.wtf

RePack

FAR CRY 5
  

В объезд / The Detour / Сезон: 3 / Серии 1-10 из 10 (Джефф Томсич, Стив Пинк, Бреннан Шрофф) [2018 г., комедия, WEBRip 1080p] MVO BaibaKo pb.wtf

В объезд через торрент pb.wtf

Размер: 9.3 GB | Добавлен: 2 года 7 мес. назад | Торрент скачан:7 раз
Скачать  

25-01-2018 00:10 В объезд Скачать торрент  

В объезд / The Detour


  • Год выпуска: 2018
  • Жанр: комедия
  • Продолжительность: ~ 00:22:00 (Серия)
  • Перевод: Профессиональный многоголосый закадровый [BaibaKo]
  • Режиссер: Джефф Томсич / Jeff Tomsic, Стив Пинк / Steve Pink, Бреннан Шрофф / Brennan Shroff
  • В ролях:

    Джейсон Джонс (Nate), Натали Зи (Robin), Эшли Герасимович (Delilah), Лайам Кэрролл (Jared), Мэри Грилл (Federal Agent), Даниэлла Пинеда (Vanessa), Фил Ривз (Gene), Дэрин Купер (ICE Agent), Деджа Ди (DEA Agent), Тейлор Ковальски (Billy Evans), Винс Фостер (USDA Agent), Денитра Ислер (Latisha)


  • Комедия «В объезд» напрямую замешана на путешествиях семьи Джонсонов. Саманта Би и её муж Джейсон, которого она не стесняется при посторонних называть идиотом, так и познакомились. А теперь их сынишка уже достаточно взрослый для того, чтобы взять без спросу машину отца, научиться ездить и разбить авто в хлам. Что же ответить, когда ребёнок задаёт сакраментальный вопрос: «Откуда всё же берутся дети?», и если так хочется иногда и взрослому побыть придурком? Когда ещё это возможно, если не во время долгого путешествия от родного дома до Флориды? И не прямиком, а в объезд!
  • Рейтинг:

    rating
  • Качество: WEBRip 1080p
  • Формат: :MKV
  • Видео кодек: AVC
  • Аудио кодек: AC3
  • Видео: 4100 Кбит/сек, 1920*1080 (16:9), в 23,976 (23976/1000) кадра/сек, AVC
  • Аудио №1: русский 384 Кбит/сек, 48,0 КГц, 16 бит, 2 канала, AC-3 |[BaibaKo]|
  • Аудио №2: английский 384 Кбит/сек, 48,0 КГц, 16 бит, 2 канала, AC-3
  • Релиз от: GEKADOL

    Внимание! Раздача ведётся путём добавления новых серий; при каждом добавлении создаётся новый торрент. Чтобы начать докачку новой серии, пользователям необходимо сделать следующее:
    (1) остановить скачивание,
    (2) удалить старый торрент у себя из клиента (старые серии удалять не надо),
    (3) скачать новый торрент и запустить его у себя в клиенте вместо старого, при этом указать клиенту путь в старую папку куда и должно происходить скачивание новых серий.
    Ваш клиент при этом должен произвести хеширование (проверку) старой папки (если не производит сам - помогите ему сделать это), и будет докачивать только те серии которых у вас ещё нет. Старые серии при этом не удаляются, а продолжают раздаваться!
    Eсли вы уже удалили старые серии, то предотвратить повторную закачку старых серий можно, отжав галочку в соответствующих местах при запуске нового торрента. По возможности, желательно не удалять старые серии как можно дольше чтобы релизёр не столько продолжал раздавать старые серии, а смог сконцентрироваться на новых.
    Общее
    Уникальный идентификатор : 203098509743974672592954921331296595805 (0x98CB59A3EE440793F6BC1DE4D5A06F5D)
    Полное имя : F:\В объезд (The Detour 3)\The.Detour.s03e01.HD1080p.WEBRip.Rus.Eng.BaibaKo.tv.mkv
    Формат : Matroska
    Версия формата : Version 4 / Version 2
    Размер файла : 731 Мбайт
    Продолжительность : 20 м. 59 с.
    Общий поток : 4870 Кбит/сек
    Дата кодирования : UTC 2018-01-24 23:57:25
    Программа кодирования : mkvmerge v19.0.0 ('Brave Captain') 64-bit
    Библиотека кодирования : libebml v1.3.5 + libmatroska v1.4.8

    Видео
    Идентификатор : 1
    Формат : AVC
    Формат/Информация : Advanced Video Codec
    Профиль формата : High@L4.1
    Настройки формата : CABAC / 4 Ref Frames
    Параметр CABAC формата : Да
    Параметр RefFrames формата : 4 кадра
    Идентификатор кодека : V_MPEG4/ISO/AVC
    Продолжительность : 20 м. 59 с.
    Битрейт : 4100 Кбит/сек
    Ширина : 1920 пикселей
    Высота : 1080 пикселей
    Соотношение сторон : 16:9
    Режим частоты кадров : Постоянный
    Частота кадров : 23,976 (23976/1000) кадра/сек
    Частота кадров в оригинале : 23,976 (24000/1001) кадра/сек
    Цветовое пространство : YUV
    Субдискретизация насыщенности : 4:2:0
    Битовая глубина : 8 бит
    Тип развёртки : Прогрессивная
    Бит/(Пиксели*Кадры) : 0.082
    Размер потока : 615 Мбайт (84%)
    Библиотека кодирования : x264 core 155 r2901 7d0ff22
    Настройки программы : cabac=1 / ref=4 / deblock=1:-3:-3 / analyse=0x3:0x113 / me=hex / subme=8 / psy=1 / psy_rd=1.00:0.15 / mixed_ref=1 / me_range=16 / chroma_me=1 / trellis=2 / 8x8dct=1 / cqm=0 / deadzone=21,11 / fast_pskip=1 / chroma_qp_offset=-2 / threads=34 / lookahead_threads=5 / sliced_threads=0 / nr=0 / decimate=1 / interlaced=0 / bluray_compat=0 / constrained_intra=0 / bframes=3 / b_pyramid=2 / b_adapt=2 / b_bias=0 / direct=3 / weightb=1 / open_gop=0 / weightp=2 / keyint=240 / keyint_min=23 / scenecut=40 / intra_refresh=0 / rc_lookahead=50 / rc=crf / mbtree=1 / crf=22.0 / qcomp=0.60 / qpmin=0 / qpmax=69 / qpstep=4 / ip_ratio=1.40 / aq=1:0.80
    Default : Нет
    Forced : Нет
    Цветовой диапазон : Limited
    Коэффициенты матрицы : BT.709

    Аудио #1
    Идентификатор : 2
    Формат : AC-3
    Формат/Информация : Audio Coding 3
    Идентификатор кодека : A_AC3
    Продолжительность : 20 м. 59 с.
    Вид битрейта : Постоянный
    Битрейт : 384 Кбит/сек
    Каналы : 2 канала
    Расположение каналов : Front: L R
    Частота : 48,0 КГц
    Частота кадров : 31,250 кадров/сек (1536 SPF)
    Битовая глубина : 16 бит
    Метод сжатия : С потерями
    Размер потока : 57,6 Мбайт (8%)
    Язык : Russian
    ServiceKind/String : Complete Main
    Default : Да
    Forced : Нет

    Аудио #2
    Идентификатор : 3
    Формат : AC-3
    Формат/Информация : Audio Coding 3
    Идентификатор кодека : A_AC3
    Продолжительность : 20 м. 59 с.
    Вид битрейта : Постоянный
    Битрейт : 384 Кбит/сек
    Каналы : 2 канала
    Расположение каналов : Front: L R
    Частота : 48,0 КГц
    Частота кадров : 31,250 кадров/сек (1536 SPF)
    Битовая глубина : 16 бит
    Метод сжатия : С потерями
    Размер потока : 57,6 Мбайт (8%)
    Язык : English
    ServiceKind/String : Complete Main
    Default : Нет
    Forced : Нет



    Скриншоты:
    скриншот   скриншот   скриншот   скриншот   скриншот   скриншот   скриншот  
    скриншот  

    Раздача ведётся путём добавления новых серий. Добавлена 10 серия (30.03.2018).Просьба перекачать торрент файл.

    pb.wtf



  • Скачать В объезд через торрент http://pic1.kartinco.top/images/11/ofxr1.jpg Скачать фильм В объезд через торрент бесплантно в хорошем качестве qw.png Комедия «В объезд» напрямую замешана на путешествиях семьи Джонсонов. Саманта Би и её муж Джейсон, которого она не стесняется при ... 1 10 1
    Info! Золотая раздача, скачанное не засчитывается.
    Торрент: Зарегистрирован [2018-03-29 23:39] · скачан: 7 раз
    Статус: √ проверено
    Размер: 9.3 GB
    Как cкачать? Как скачать В объезд через торрент | qTorrent

    28-11-2019 20:33  

    Отключить всю рекламу на сайте

      Дорогой пользователь! Огромная просьба, поблагодарите релизера, оцените раздачу и оставьте свои комментарий, если Вы скачали В объезд через торрент бесплатно! Внесите свою лепту в развитие PiratBit!
      Комментировать посты могут только пользователи прошедшие не сложную регистрацию
      Показать сообщения:    

      В объезд через торрент
      Скачать бесплатно В объезд
      В объезд скачать торрент
      В объезд смотреть онлайн
      Cкачать фильм В объезд бесплатно
      В объезд скачать торрент в хорошем качестве
      В объезд смотреть онлайн бесплатно в хорошем качестве


      Вы не можете начинать темы
      Вы не можете отвечать на сообщения
      Вы не можете редактировать свои сообщения
      Вы не можете удалять свои сообщения
      Вы не можете голосовать в опросах
      Вы не можете прикреплять файлы к сообщениям
      Вы можете скачивать файлы