Ссылка на приватное зеркало нашего сайта всего за 1$. Внимание количество ограничено!!!

2 сезон

iTunes

1 сезон

1

2 сезон

2 сезон

iTunes

1 сезон

RePack

30

Новинка

ВАЖНО

ИГРА 18+

pack

RePack

MK11
pack

Забери бонус

RePack

jed

!!Акция!!

Alien_Rage

RePack

fifa19

RePack

Assassins Creed: Odyssey

RePack

NEED FOR SPEED™ PAYBACK

4 сезон

9 сезон

Бесстыжие 9 сезон

Все сериалы

все сериалы на PB.wtf

RePack

FAR CRY 5
  

Конец ****го мира / The End Of The F***ing World / Сезон: 1 / Серии: 1-8 из 8 (Джонатан Энтвистл, Люси Черняк) [2017, Комедия, Драма, WEBRip 1080p] MVO [NewStudio] pb.wtf

Конец ****го мира через торрент pb.wtf

Раздают: 1 [ 0 KB/s ] Качают: 1 [ 0 KB/s ]
Размер: 6.56 GB | Добавлен: 2 года 10 мес. назад | Торрент скачан:261 раз
Скачать  

25-01-2018 13:51 Конец ****го мира Скачать торрент  

Конец ****го мира / The End Of The F***ing World✦ Год выпуска: 2017
✦ Страна: Великобритания
✦ Жанр: Комедия, Драма
✦ Продолжительность: ~ 00:25:00 (Серия)
✦ Перевод: Профессиональный многоголосый -
✦ Субтитры: Русские

Режиссер: Джонатан Энтвистл, Люси Черняк

rating

В ролях:

Джофф Белл, Фелисити Монтегю, Джонатан Арис, Мэтт Кинг, Бэрри Уорд, Навин Чоудхри, Кристин Боттомли, Эйлин Дейвис, Кирстон Вэрэйнг, Полли Кемп, Келли Харрисон, Алекс Бекетт, Джессика Барден, Джемма Уилан, Стив Орам, Алекс Сойер, Алекс Лоутер

Описание:

Джеймсу 17 лет, и он уверен, что он психопат. Его внимание привлекает новенькая красивая девушка в школе, которая всегда находится в угрюмом настроении. Через некоторое время герои завязывают дружеские отношения, и девушка уговаривает Джеймса отправиться с ней на поиски её родного отца.

Качество: WEBRip 1080p
Формат: MKV

Видео: 1920x1080 at 25.000 fps, MPEG-4 AVC, ~5000 kbps avg
Аудио#1: Russian: 48 kHz, AC3, 3/2 (L,C,R,l,r) + LFE ch, ~384 kbps avg |Многоголосый закадровый, NewStudio|
Аудио#2: English: 48 kHz, AC3, 3/2 (L,C,R,l,r) + LFE ch, ~384 kbps avg
скриншот   скриншот   скриншот   скриншот  

Общее
Уникальный идентификатор : 68044342129479286357918747171550318770 (0x3330DD153D2676B18FF8C3811ADAD0B2)
Полное имя : D:\The.End.of.the.Fing.World.s01.WEBRip.1080p.NewStudio.Wanterlude\The.End.of.the.Fing.World.s01e01.WEBRip.1080p.NewStudio.Wanterlude.mkv
Формат : Matroska
Версия формата : Version 4 / Version 2
Размер файла : 748 Мбайт
Продолжительность : 18 м. 54 с.
Режим общего битрейта : Переменный
Общий поток : 5527 Кбит/сек
Название фильма : The End OTF World | Ep 01 | NewStudio
Дата кодирования : UTC 2018-01-25 07:54:33
Программа кодирования : mkvmerge v19.0.0 ('Brave Captain') 64-bit
Библиотека кодирования : libebml v1.3.5 + libmatroska v1.4.8

Видео
Идентификатор : 1
Формат : AVC
Формат/Информация : Advanced Video Codec
Профиль формата : Main@L4
Параметр CABAC формата : Да
Параметр ReFrames формата : 3 кадра
Идентификатор кодека : V_MPEG4/ISO/AVC
Продолжительность : 18 м. 54 с.
Вид битрейта : Переменный
Битрейт : 4870 Кбит/сек
Максимальный битрейт : 7305 Кбит/сек
Ширина : 1920 пикселей
Высота : 1080 пикселей
Соотношение сторон : 16:9
Режим частоты кадров : Постоянный
Частота кадров : 25,000 кадров/сек
Цветовое пространство : YUV
Субдискретизация насыщенности : 4:2:0
Битовая глубина : 8 бит
Тип развёртки : Прогрессивная
Бит/(Пиксели*Кадры) : 0.094
Размер потока : 643 Мбайт (86%)
Заголовок : The End OTF World | Ep 01 | NewStudio
Библиотека кодирования : x264 core 148
Настройки программы : cabac=1 / ref=3 / deblock=1:0:0 / analyse=0x1:0x111 / me=umh / subme=10 / psy=1 / psy_rd=1.00:0.00 / mixed_ref=1 / me_range=24 / chroma_me=1 / trellis=2 / 8x8dct=0 / cqm=0 / deadzone=21,11 / fast_pskip=1 / chroma_qp_offset=-2 / threads=8 / lookahead_threads=1 / sliced_threads=0 / nr=0 / decimate=1 / interlaced=0 / bluray_compat=0 / stitchable=1 / constrained_intra=0 / bframes=2 / b_pyramid=0 / b_adapt=2 / b_bias=0 / direct=3 / weightb=1 / open_gop=0 / weightp=2 / keyint=50 / keyint_min=26 / scenecut=0 / intra_refresh=0 / rc_lookahead=50 / rc=2pass / mbtree=1 / bitrate=4870 / ratetol=1.0 / qcomp=0.50 / qpmin=6 / qpmax=51 / qpstep=4 / cplxblur=20.0 / qblur=0.5 / vbv_maxrate=7305 / vbv_bufsize=9740 / nal_hrd=vbr / filler=0 / ip_ratio=1.40 / aq=1:1.00
Default : Да
Forced : Нет

Аудио #1
Идентификатор : 2
Формат : AC-3
Формат/Информация : Audio Coding 3
Расширение режима : CM (complete main)
Параметр Endianness формата : Big
Идентификатор кодека : A_AC3
Продолжительность : 18 м. 54 с.
Вид битрейта : Постоянный
Битрейт : 384 Кбит/сек
Каналы : 6 каналов
Расположение каналов : Front: L C R, Side: L R, LFE
Частота : 48,0 КГц
Частота кадров : 31,250 кадров/сек (1536 spf)
Метод сжатия : С потерями
Размер потока : 51,9 Мбайт (7%)
Заголовок : NewStudio | Wanterlude
Default : Да
Forced : Нет

Аудио #2
Идентификатор : 3
Формат : AC-3
Формат/Информация : Audio Coding 3
Расширение режима : CM (complete main)
Параметр Endianness формата : Big
Идентификатор кодека : A_AC3
Продолжительность : 18 м. 54 с.
Вид битрейта : Постоянный
Битрейт : 384 Кбит/сек
Каналы : 6 каналов
Расположение каналов : Front: L C R, Side: L R, LFE
Частота : 48,0 КГц
Частота кадров : 31,250 кадров/сек (1536 spf)
Метод сжатия : С потерями
Размер потока : 51,9 Мбайт (7%)
Язык : English
Default : Нет
Forced : Нет

Текст
Идентификатор : 4
Формат : ASS
Идентификатор кодека : S_TEXT/ASS
Идентификатор кодека/Информация : Advanced Sub Station Alpha
Продолжительность : 1 м. 51 с.
Битрейт : 16 бит/сек
Count of elements : 3
Метод сжатия : Без потерь
Размер потока : 226 байт (0%)
Заголовок : Forced
Язык : Russian
Default : Да
Forced : Нет

pb.wtf



Скачать Конец ****го мира через торрент http://i99.fastpic.ru/big/2018/0115/d2/9b1439243617714ede67cd3aa6422ad2.png Скачать фильм Конец ****го мира через торрент бесплантно в хорошем качестве Описание: Джеймсу 17 лет, и он уверен, что он психопат. Его внимание привлекает новенькая красивая девушка в школе, которая всегда ... 9.2 10 11
Торрент: Зарегистрирован [2018-01-25 13:51] · скачан: 261 раз
Статус: √ проверено
Размер: 6.56 GB
Как cкачать? Как скачать Конец ****го мира через торрент | qTorrent

28-11-2019 20:33  

Отключить всю рекламу на сайте

    Дорогой пользователь! Огромная просьба, поблагодарите релизера, оцените раздачу и оставьте свои комментарий, если Вы скачали Конец ****го мира через торрент бесплатно! Внесите свою лепту в развитие PiratBit!
    Комментировать посты могут только пользователи прошедшие не сложную регистрацию
    Показать сообщения:    

    Конец ****го мира через торрент
    Скачать бесплатно Конец ****го мира
    Конец ****го мира скачать торрент
    Конец ****го мира смотреть онлайн
    Cкачать фильм Конец ****го мира бесплатно
    Конец ****го мира скачать торрент в хорошем качестве
    Конец ****го мира смотреть онлайн бесплатно в хорошем качестве


    Вы не можете начинать темы
    Вы не можете отвечать на сообщения
    Вы не можете редактировать свои сообщения
    Вы не можете удалять свои сообщения
    Вы не можете голосовать в опросах
    Вы не можете прикреплять файлы к сообщениям
    Вы можете скачивать файлы