Ссылка на приватное зеркало нашего сайта всего за 1$. Внимание количество ограничено!!!

2 сезон

iTunes

1 сезон

1

2 сезон

2 сезон

iTunes

1 сезон

RePack

30

Ultimate

ВАЖНО

ИГРА 18+

pack

RePack

MK11
pack

Забери бонус

RePack

jed

!!Акция!!

Alien_Rage

RePack

fifa19

RePack

Assassins Creed: Odyssey

RePack

NEED FOR SPEED™ PAYBACK

4 сезон

9 сезон

Бесстыжие 9 сезон

Все сериалы

все сериалы на PB.wtf

RePack

FAR CRY 5
  

Алиенист / The Alienist / Сезон: 1 / Серии: 1-10 из 10 (Пако Кабесас, Джеймс Хоуз, Джэми Пэйн) [2018, драма, детектив, WEB-DL 1080p] MVO [AlexFilm] pb.wtf

Алиенист через торрент pb.wtf

Размер: 23.23 GB | Добавлен: 2 года 7 мес. назад | Торрент скачан:27 раз
Скачать  

25-01-2018 14:21 Алиенист Скачать торрент  

Алиенист / The AlienistГод выпуска: 2018
Страна: США
Жанр: драма, детектив
Продолжительность: ~ 00:58:00
Перевод: Профессиональный многоголосый |
Субтитры: отсутствуют

Режиссер: Пако Кабесас, Джеймс Хоуз, Джэми Пэйн

rating

В ролях:

Даниэль Брюль, Дакота Фаннинг, Люк Эванс, Мэттью Линтц, Мартин МакКриди, Мэттью Шир, Дуглас Смит, Дэвид Уилмот, К Орианка Килчер, Тед Левайн

Описание:

В конце XIX века, в 1896 году, Нью-Йорк потрясает серия жестоких убийств: в городских трущобах убивают детей, с каждым разом все более и более изощренно - будто исполняется какой-то кровавый ритуал. Расследование ведет яркая команда: будущий президент, а пока комиссар полиции Теодор Рузвельт, выдающийся психолог-алиенист (изучает умственные патологии) Ласло Крайцлер и репортер уголовной хроники Джон Скайлер Мур.

Качество: WEB-DL 1080p
Формат: MKV

Видео: 1920x1080 at 23.976 fps, MPEG-4 AVC, ~6000 kbps avg
Аудио#1: Russian: 48 kHz, AC3, 3/2 (L,C,R,l,r) + LFE ch, ~384 kbps avg |Многоголосый закадровый, AlexFilm|
Аудио#2: English: 48 kHz, AC3, 3/2 (L,C,R,l,r) + LFE ch, ~384 kbps avg
скриншот   скриншот   скриншот  

Общее
Уникальный идентификатор : 185621647465123192320887223243972729088 (0x8BA56DCD9136C24CB2C13B76AD76D900)
Полное имя : D:\The Alienist - Season 1 (AlexFilm) WEB-DL 1080p\The.Alienist.s01e01.WEB-DL.1080p.Rus.Eng.AlexFilm.byVinT.mkv
Формат : Matroska
Версия формата : Version 4 / Version 2
Размер файла : 2,35 Гбайт
Продолжительность : 48 м. 15 с.
Режим общего битрейта : Переменный
Общий поток : 6973 Кбит/сек
Дата кодирования : UTC 2018-01-25 13:28:34
Программа кодирования : mkvmerge v18.0.0 ('Apricity') 64-bit
Библиотека кодирования : libebml v1.3.5 + libmatroska v1.4.8

Видео
Идентификатор : 1
Формат : AVC
Формат/Информация : Advanced Video Codec
Профиль формата : High@L4
Параметр CABAC формата : Да
Параметр ReFrames формата : 4 кадра
Идентификатор кодека : V_MPEG4/ISO/AVC
Продолжительность : 48 м. 15 с.
Вид битрейта : Переменный
Битрейт : 6066 Кбит/сек
Максимальный битрейт : 15,0 Мбит/сек
Ширина : 1920 пикселей
Высота : 1080 пикселей
Соотношение сторон : 16:9
Режим частоты кадров : Постоянный
Частота кадров : 23,976 (24000/1001) кадра/сек
Цветовое пространство : YUV
Субдискретизация насыщенности : 4:2:0
Битовая глубина : 8 бит
Тип развёртки : Прогрессивная
Бит/(Пиксели*Кадры) : 0.122
Размер потока : 2,04 Гбайт (87%)
Язык : English
Default : Да
Forced : Нет
Цветовой диапазон : Limited
Основные цвета : BT.709
Характеристики трансфера : BT.709
Коэффициенты матрицы : BT.709

Аудио #1
Идентификатор : 2
Формат : AC-3
Формат/Информация : Audio Coding 3
Расширение режима : CM (complete main)
Параметр Endianness формата : Big
Идентификатор кодека : A_AC3
Продолжительность : 48 м. 15 с.
Вид битрейта : Постоянный
Битрейт : 384 Кбит/сек
Каналы : 6 каналов
Расположение каналов : Front: L C R, Side: L R, LFE
Частота : 48,0 КГц
Частота кадров : 31,250 кадров/сек (1536 spf)
Метод сжатия : С потерями
Размер потока : 133 Мбайт (6%)
Заголовок : DD 5.1 AlexFilm
Язык : Russian
Default : Да
Forced : Нет

Аудио #2
Идентификатор : 3
Формат : AC-3
Формат/Информация : Audio Coding 3
Расширение режима : CM (complete main)
Параметр Endianness формата : Big
Идентификатор кодека : A_AC3
Продолжительность : 48 м. 15 с.
Вид битрейта : Постоянный
Битрейт : 384 Кбит/сек
Каналы : 6 каналов
Расположение каналов : Front: L C R, Side: L R, LFE
Частота : 48,0 КГц
Частота кадров : 31,250 кадров/сек (1536 spf)
Метод сжатия : С потерями
Размер потока : 133 Мбайт (6%)
Заголовок : Eng
Язык : English
Default : Нет
Forced : Нет

Когда раздача ведётся путём добавления новых серий, при каждом добавлении создётся новый торрент. Чтобы начать докачку новой серии, пользователям необходимо сделать следующее:
(1) остановить скачивание,
(2) удалить старый торрент у себя из клиента (старые серии удалять не надо),
(3) скачать новый торрент и запустить его у себя в клиенте вместо старого, при этом указать клиенту путь в старую папку, куда и должно происходить скачивание новых серий.
Ваш клиент при этом должен произвести хеширование (проверку) старой папки (если не производит сам - помогите ему сделать это), и будет докачивать только те серии, которых у вас ещё нет. Старые серии при этом не удаляются, а продолжают раздаваться!
Eсли вы уже удалили старые серии, то предотвратить повторную закачку старых серий можно, отжав галочку в соответсвующих местах при запуске нового торрента. По возможности, желательно не удалять старые серии как можно дольше, чтобы релизёр не столько продолжал раздавать старые серии, а смог сконцентрироваться на новых.
pb.wtf



Скачать Алиенист через торрент http://b.radikal.ru/b24/1801/9b/1167b34c0622.jpg Скачать фильм Алиенист через торрент бесплантно в хорошем качестве Описание: В конце XIX века, в 1896 году, Нью-Йорк потрясает серия жестоких убийств: в городских трущобах убивают детей, с каждым разом все ... 8.1 10 7
Info! Золотая раздача, скачанное не засчитывается.
Торрент: Зарегистрирован [2018-03-29 20:16] · скачан: 27 раз
Статус: √ проверено
Размер: 23.23 GB
Как cкачать? Как скачать Алиенист через торрент | qTorrent

% Раздел Тема Автор DL S | L
Зарубежные сериалы [ 29.1 GB ] Алиенист / The Alienist / Сезон 2 / Серия 1-8 из 8 [2020 WEB-DL 1080p] 5x[MVO] killermax2013 Скачать
1 | 0
Зарубежные сериалы [ 28.23 GB ] Алиенист / The Alienist / Сезон: 2 / Серии: 1-8 из 8 [2020 WEB-DL 1080p] 3xMVO [AlexFilm LostFilm NewStudio] bober100 Скачать
1 | 0
Зарубежные сериалы [ 25.44 GB ] Алиенист / The Alienist / Сезон: 2 / Серии: 1-8 из 8 [2020 WEB-DL 1080p] MVO [AlexFilm] bober100 Скачать
1 | 0
Зарубежные сериалы [ 24.74 GB ] Алиенист / The Alienist / Сезон: 2 / Серии: 1-8 из 8 [2020 WEB-DL 1080p] MVO [Jaskier] bober100 Скачать
2 | 0
Зарубежные сериалы [ 24.07 GB ] Алиенист / The Alienist/ Сезон: 1 / Серии: 1-10 из 10 [2018 WEBRip 1080p] MVO [TVShows] bober100 Скачать
1 | 0
Зарубежные сериалы [ 19.12 GB ] Алиенист / The Alienist / Сезон: 1 / Серии: 1-10 из 10 [2018 WEB-DL 1080p] MVO [NewStudio] bober100 Скачать
1 | 0
Зарубежные сериалы [ 8.73 GB ] Алиенист / The Alienist / Сезон: 1 / Серии: 1-10 из 10 [2018 WEB-DLRip] MVO [LostFilm] bober100 Скачать
1 | 0


Последний раз редактировалось: bober100 (2018-03-29 20:16), всего редактировалось 6 раз(а)

28-11-2019 20:33  

Отключить всю рекламу на сайте

25-01-2018 15:17 Алиенист Скачать торрент  

убийца-садовникpb.wtf



22-02-2018 15:01 Алиенист Скачать торрент  

=ZMEY=, точно не дворецкий?pb.wtf



    Дорогой пользователь! Огромная просьба, поблагодарите релизера, оцените раздачу и оставьте свои комментарий, если Вы скачали Алиенист через торрент бесплатно! Внесите свою лепту в развитие PiratBit!
    Комментировать посты могут только пользователи прошедшие не сложную регистрацию
    Показать сообщения:    

    Алиенист через торрент
    Скачать бесплатно Алиенист
    Алиенист скачать торрент
    Алиенист смотреть онлайн
    Cкачать фильм Алиенист бесплатно
    Алиенист скачать торрент в хорошем качестве
    Алиенист смотреть онлайн бесплатно в хорошем качестве


    Вы не можете начинать темы
    Вы не можете отвечать на сообщения
    Вы не можете редактировать свои сообщения
    Вы не можете удалять свои сообщения
    Вы не можете голосовать в опросах
    Вы не можете прикреплять файлы к сообщениям
    Вы можете скачивать файлы