Ссылка на приватное зеркало нашего сайта всего за 1$. Внимание количество ограничено!!!

2 сезон

iTunes

1 сезон

1

2 сезон

2 сезон

iTunes

1 сезон

RePack

30

Ultimate

ВАЖНО

ИГРА 18+

pack

RePack

MK11
pack

Забери бонус

RePack

jed

!!Акция!!

Alien_Rage

RePack

fifa19

RePack

Assassins Creed: Odyssey

RePack

NEED FOR SPEED™ PAYBACK

4 сезон

9 сезон

Бесстыжие 9 сезон

Все сериалы

все сериалы на PB.wtf

RePack

FAR CRY 5
  

Американская история преступлений / The Assassination of Gianni Versace: American Crime Story / Сезон: 2 / Серии 1-9 из 9 (Райан Мерфи, Энтони Хемингуэй) [2018, Драма, криминал, биография, WEB-DL 1080p] MVO [Jaskier] pb.wtf

Американская история преступлений через торрент pb.wtf

Раздают: 4 [ 0 KB/s ]
Размер: 38.81 GB | Добавлен: 2 года 8 мес. назад | Торрент скачан:52 раза
Скачать  

25-01-2018 17:24 Американская история преступлений Скачать торрент  

Американская история преступлений
/
The Assassination of Gianni Versace: American Crime Story


Информация о фильме:

✦ Название: Американская история преступлений
✦ Оригинальное название: The Assassination of Gianni Versace: American Crime Story
✦ Год выпуска: 2018
✦ Страна: США
✦ Жанр: Драма, криминал, биография
✦ Продолжительность: х ~ 00:55:00
✦ Перевод: Профессиональный многоголосый - Jaskier
✦ Субтитры: | английские |

✦ Режиссер: Райан Мерфи, Энтони Хемингуэй

rating

В ролях:

Джон Траволта, Сэльма Блэр, Конни Бриттон, Стерлинг К. Браун, Кеннет Чои, Кьюба Гудинг мл., Брюс Гринвуд, Нэйтан Лейн, Билли Магнуссен, Сара Полсон, Дэвид Швиммер

Описание:

Сюжет основан на реальных событиях, судебном расследовании, известном как "Дело Симпсона". О. Джей Симпсон обвинялся в зверском убийстве собственной жены. За подобные преступления обвиняемые обычно приговариваются к смертной казни, но после очень затяжного судебного процесса Симпсон был оправдан.

Информация о файле:

✦ Качество: WEB-DL 1080p
✦ Формат: MKV
✦ Видео кодек: H.264
✦ Аудио кодек: AC3

✦ Видео: ~ 12700 kbps | 1920x1080 (16:9)
✦ Аудио#1 RUS: AC3 | 48.0 KHz | 6 ch | 384 kbps
✦ Аудио#2 ENG: AC3 | 48.0 KHz | 6 ch | 384 kbps

скриншот   скриншот   скриншот  

Общее
Уникальный идентификатор : 175620009072570923502188714990989367158 (0x841F2EF54F817E8383992F9AB4AE5776)
Полное имя : D:\American Crime Story. Season 2 (WEB-DL l 1080p l Jaskier)\American.Crime.Story.S02E01.1080p.WEB-DL.DD5.1.H.264-Jaskier.mkv
Формат : Matroska
Версия формата : Version 2
Размер файла : 5,04 Гбайт
Продолжительность : 53 м. 22 с.
Режим общего битрейта : Переменный
Общий поток : 13,5 Мбит/сек
Дата кодирования : UTC 2018-01-25 16:13:37
Программа кодирования : mkvmerge v7.8.0 ('River Man') 32bit built on Apr 3 2015 12:11:22
Библиотека кодирования : libebml v1.3.1 + libmatroska v1.4.2

Видео
Идентификатор : 1
Формат : AVC
Формат/Информация : Advanced Video Codec
Профиль формата : High@L4
Параметр CABAC формата : Да
Параметр ReFrames формата : 4 кадра
Идентификатор кодека : V_MPEG4/ISO/AVC
Продолжительность : 53 м. 22 с.
Вид битрейта : Переменный
Битрейт : 12,5 Мбит/сек
Максимальный битрейт : 15,0 Мбит/сек
Ширина : 1920 пикселей
Высота : 1080 пикселей
Соотношение сторон : 16:9
Режим частоты кадров : Постоянный
Частота кадров : 23,976 (24000/1001) кадра/сек
Цветовое пространство : YUV
Субдискретизация насыщенности : 4:2:0
Битовая глубина : 8 бит
Тип развёртки : Прогрессивная
Бит/(Пиксели*Кадры) : 0.251
Размер потока : 4,65 Гбайт (92%)
Язык : English
Default : Да
Forced : Нет
Цветовой диапазон : Limited
Основные цвета : BT.709
Характеристики трансфера : BT.709
Коэффициенты матрицы : BT.709

Аудио #1
Идентификатор : 2
Формат : AC-3
Формат/Информация : Audio Coding 3
Расширение режима : CM (complete main)
Параметр Endianness формата : Big
Идентификатор кодека : A_AC3
Продолжительность : 53 м. 22 с.
Вид битрейта : Постоянный
Битрейт : 384 Кбит/сек
Каналы : 6 каналов
Расположение каналов : Front: L C R, Side: L R, LFE
Частота : 48,0 КГц
Частота кадров : 31,250 кадров/сек (1536 spf)
Метод сжатия : С потерями
Размер потока : 147 Мбайт (3%)
Заголовок : Jaskier
Язык : Russian
Default : Да
Forced : Нет

Аудио #2
Идентификатор : 3
Формат : AC-3
Формат/Информация : Audio Coding 3
Расширение режима : CM (complete main)
Параметр Endianness формата : Big
Идентификатор кодека : A_AC3
Продолжительность : 53 м. 22 с.
Вид битрейта : Постоянный
Битрейт : 384 Кбит/сек
Каналы : 6 каналов
Расположение каналов : Front: L C R, Side: L R, LFE
Частота : 48,0 КГц
Частота кадров : 31,250 кадров/сек (1536 spf)
Метод сжатия : С потерями
Размер потока : 147 Мбайт (3%)
Язык : English
Default : Нет
Forced : Нет

Текст
Идентификатор : 4
Формат : UTF-8
Идентификатор кодека : S_TEXT/UTF8
Идентификатор кодека/Информация : UTF-8 Plain Text
Язык : English
Default : Нет
Forced : Нет

Внимание! Раздача ведётся путём добавления новых серий; при каждом добавлении создаётся новый торрент. Чтобы начать докачку новой серии, пользователям необходимо сделать следующее:
(1) остановить скачивание,
(2) удалить старый торрент у себя из клиента (старые серии удалять не надо),
(3) скачать новый торрент и запустить его у себя в клиенте вместо старого, при этом указать клиенту путь в старую папку куда и должно происходить скачивание новых серий.
Ваш клиент при этом должен произвести хеширование (проверку) старой папки (если не производит сам - помогите ему сделать это), и будет докачивать только те серии которых у вас ещё нет. Старые серии при этом не удаляются, а продолжают раздаваться!
Eсли вы уже удалили старые серии, то предотвратить повторную закачку старых серий можно, отжав галочку в соответствующих местах при запуске нового торрента. По возможности, желательно не удалять старые серии как можно дольше чтобы релизёр не столько продолжал раздавать старые серии, а смог сконцентрироваться на новых.
pb.wtf



Скачать Американская история преступлений через торрент http://img12.lostpic.net/2018/01/25/b4ccff73b8325185edb47df3beac2a78.png Скачать фильм Американская история преступлений через торрент бесплантно в хорошем качестве Описание:Сюжет основан на реальных событиях, судебном расследовании, известном как "Дело Симпсона". О. Джей Симпсон обвинялся в зверском ... 10 10 3
Торрент: Зарегистрирован [2018-03-24 15:26] · скачан: 52 раз
Статус: √ проверено
Размер: 38.81 GB
Как cкачать? Как скачать Американская история преступлений через торрент | qTorrent

% Раздел Тема Автор DL S | L
Зарубежные сериалы [ 5.8 GB ] Американская история преступлений / The Assassination of Gianni Versace: American Crime Story / Сезон: 2 / Серии: 1-9 из 9 [2018 биография WEB-DLRip] MVO [Jaskier] bober100 Скачать
1 | 0


Последний раз редактировалось: bober100 (2018-03-24 15:26), всего редактировалось 2 раз(а)

28-11-2019 20:33  

Отключить всю рекламу на сайте

04-03-2018 10:46 Американская история преступлений Скачать торрент  

сезон второй, а описание первого.???pb.wtf



    Дорогой пользователь! Огромная просьба, поблагодарите релизера, оцените раздачу и оставьте свои комментарий, если Вы скачали Американская история преступлений через торрент бесплатно! Внесите свою лепту в развитие PiratBit!
    Комментировать посты могут только пользователи прошедшие не сложную регистрацию
    Показать сообщения:    

    Американская история преступлений через торрент
    Скачать бесплатно Американская история преступлений
    Американская история преступлений скачать торрент
    Американская история преступлений смотреть онлайн
    Cкачать фильм Американская история преступлений бесплатно
    Американская история преступлений скачать торрент в хорошем качестве
    Американская история преступлений смотреть онлайн бесплатно в хорошем качестве


    Вы не можете начинать темы
    Вы не можете отвечать на сообщения
    Вы не можете редактировать свои сообщения
    Вы не можете удалять свои сообщения
    Вы не можете голосовать в опросах
    Вы не можете прикреплять файлы к сообщениям
    Вы можете скачивать файлы