Ссылка на приватное зеркало нашего сайта всего за 1$. Внимание количество ограничено!!!

2 сезон

iTunes

1 сезон

1

2 сезон

2 сезон

iTunes

1 сезон

RePack

30

Новинка

ВАЖНО

ИГРА 18+

pack

RePack

MK11
pack

Забери бонус

RePack

jed

!!Акция!!

Alien_Rage

RePack

fifa19

RePack

Assassins Creed: Odyssey

RePack

NEED FOR SPEED™ PAYBACK

4 сезон

9 сезон

Бесстыжие 9 сезон

Все сериалы

все сериалы на PB.wtf

RePack

FAR CRY 5
  

Валериан и город тысячи планет / Valerian and the City of a Thousand Planets (Люк Бессон) [2017, фантастика, фэнтези, боевик, приключения, BDRip 720p 60 fps от еnvy / NNNB] NOR-Transfer | DUB pb.wtf

Валериан и город тысячи планет через торрент pb.wtf

Раздают: 7 [ 161 KB/s ]
Размер: 5.92 GB | Добавлен: 2 года 10 мес. назад | Торрент скачан:892 раза
Скачать  

25-01-2018 17:42 Валериан и город тысячи планет Скачать торрент  

Информация о фильме
Русское название: Валериан и город тысячи планет
Оригинальное название: Valerian and the City of a Thousand Planets
Год выхода: 2017
Жанр: фантастика, фэнтези, боевик, приключения
Режиссер: Люк Бессон
Выпущено: Франция, Китай, Бельгия, Германия, ОАЭ, США
Продолжительность: 02:16:40
Перевод: Дублированный
В ролях: Дэйн ДеХаан, Кара Делевинь, Клайв Оуэн, Рианна, Итан Хоук, Херби Хэнкок, Крис У, Сэм Спруэлл, Ален Шаба, Рутгер Хауэр, Питер Хадсон, Ксавье Джанноли

Описание:
2700 год. Валериан и Лорелин — космические спецагенты, которые по долгу службы впутались в подозрительное дело и стали невольными участниками то ли межгалактического заговора, то ли аферы причудливых поселенцев планеты Альфа, прибывших туда из различных миров со всех уголков галактик.

Файл
Качество: BDRip 720p (исходник Blu-ray Disc Remux)
Контейнер: MKV (расширение файла)
Видео: 1280x536, 4920 Кбит/сек, 60.000 кадр/сек, AVC, x264, High@L4.1, 2.40:1, 0.120 Бит/[Пиксели*Кадры]
Аудио 1: AC-3, 640 Кбит/сек, 6 канала(ов), 48,0 КГц - Дублированный / Русский
Аудио 2: AC-3, 640 Кбит/сек, 6 канала(ов), 48,0 КГц - Оригинал / Английский
Субтитры: Русские | Полные, Английские | Полные
Форсированные субтитры: Русские
Чаптеры (Главы): Нет


Автор Рипа: Сообщество: мы в VK подписывайтесь.
скриншот   скриншот   скриншот   скриншот   скриншот  
Format : Matroska
Format version : Version 2
File size : 5.92 GiB
Duration : 2 h 16 min
Overall bit rate : 6 204 kb/s
Movie name : Valerian and the City of a Thousand Planets.(2017).BDRip.720p.[envy].[60fps]
Encoded date : UTC 2018-01-24 16:21:57
Writing application : mkvmerge v5.8.0 ('No Sleep / Pillow') built on Sep 2 2012 15:37:04
Writing library : libebml v1.2.3 + libmatroska v1.3.0

Video
ID : 1
Format : AVC
Format/Info : Advanced Video Codec
Format profile : High@L4.1
Format settings : CABAC / 9 Ref Frames
Format settings, CABAC : Yes
Format settings, ReFrames : 9 frames
Codec ID : V_MPEG4/ISO/AVC
Duration : 2 h 16 min
Bit rate : 4 920 kb/s
Width : 1 280 pixels
Height : 536 pixels
Display aspect ratio : 2.40:1
Frame rate mode : Constant
Frame rate : 60.000 FPS
Color space : YUV
Chroma subsampling : 4:2:0
Bit depth : 8 bits
Scan type : Progressive
Bits/(Pixel*Frame) : 0.120
Stream size : 4.58 GiB (77%)
Title : Valerian and the City of a Thousand Planets.(2017).BDRip.720p.[envy].[60fps]
Writing library : x264 core 146 r2538 121396c
Encoding settings : cabac=1 / ref=9 / deblock=1:0:0 / analyse=0x3:0x113 / me=umh / subme=10 / psy=1 / psy_rd=1.00:0.00 / mixed_ref=1 / me_range=24 / chroma_me=1 / trellis=2 / 8x8dct=1 / cqm=0 / deadzone=21,11 / fast_pskip=0 / chroma_qp_offset=-2 / threads=12 / lookahead_threads=1 / sliced_threads=0 / nr=0 / decimate=1 / interlaced=0 / bluray_compat=0 / constrained_intra=0 / bframes=5 / b_pyramid=2 / b_adapt=2 / b_bias=0 / direct=3 / weightb=1 / open_gop=0 / weightp=2 / keyint=250 / keyint_min=25 / scenecut=40 / intra_refresh=0 / rc=2pass / mbtree=0 / bitrate=4920 / ratetol=1.0 / qcomp=0.60 / qpmin=0 / qpmax=69 / qpstep=4 / cplxblur=20.0 / qblur=0.5 / ip_ratio=1.40 / pb_ratio=1.30 / aq=3:0.90
Language : English
Default : Yes
Forced : No

Audio #1
ID : 2
Format : AC-3
Format/Info : Audio Coding 3
Codec ID : A_AC3
Duration : 2 h 16 min
Bit rate mode : Constant
Bit rate : 640 kb/s
Channel(s) : 6 channels
Channel positions : Front: L C R, Side: L R, LFE
Sampling rate : 48.0 kHz
Frame rate : 31.250 FPS (1536 SPF)
Bit depth : 16 bits
Compression mode : Lossy
Stream size : 626 MiB (10%)
Title : Dub
Language : Russian
Service kind : Complete Main
Default : Yes
Forced : No

Audio #2
ID : 3
Format : AC-3
Format/Info : Audio Coding 3
Codec ID : A_AC3
Duration : 2 h 16 min
Bit rate mode : Constant
Bit rate : 640 kb/s
Channel(s) : 6 channels
Channel positions : Front: L C R, Side: L R, LFE
Sampling rate : 48.0 kHz
Frame rate : 31.250 FPS (1536 SPF)
Bit depth : 16 bits
Compression mode : Lossy
Stream size : 626 MiB (10%)
Title : Eng
Language : English
Service kind : Complete Main
Default : No
Forced : No

Text #1
ID : 4
Format : UTF-8
Codec ID : S_TEXT/UTF8
Codec ID/Info : UTF-8 Plain Text
Title : Rus forced
Language : Russian
Default : Yes
Forced : Yes

Text #2
ID : 5
Format : UTF-8
Codec ID : S_TEXT/UTF8
Codec ID/Info : UTF-8 Plain Text
Title : Rus full
Language : Russian
Default : No
Forced : No

Text #3
ID : 6
Format : UTF-8
Codec ID : S_TEXT/UTF8
Codec ID/Info : UTF-8 Plain Text
Title : Eng full
Language : English
Default : No
Forced : No
Прежде чем скачивать фильм полностью, скачайте "сэмпл", и проверьте будет ли воспроизводится видео на вашем устройстве!

Q: Присутствуют ли артефакты на изображении?
A: Да, есть, и будут, какие настройки скритпа не вписывай они будут постоянно! Так как это дорисованные кадры из исходных + Видео ряд обработан фильтром "Sharp"

Q: У меня не запускается видео на компьютере?
A: Обновите кодеки. (попробуйте другие видео проигрыватели)

Q: У меня идет рассинхрон звука и видео?
A: Проблема в мощности компьютера. (возможно также нужно обновить кодеки)

Q: Что нужно для воспроизведения данного видео.
A: Что рекомендуется для воспроизведения мной:
Процессор: 4х ядерный
Видео карта: минимум 512Мб. И желательно включить обработку изображения с помощью видео карты. (Деинтерлейсинг, подавление блочности и т.д.)
ОЗУ: 2-4Гб

Проигрыватели.
MPC-HC (Media Player Classic - Home Cinema)
The KMPlayer (Korean Multimedia Player) (оптимальный вариант)
Mirillis Splash PRO (Если что то проигрыватель сам может преобразовывать видео вплоть до частоты кадров монитора. Или тех же 60fps.)
^Прежде чем отписывать комментарии по качеству, прочитайте спойлер!

pb.wtf



Скачать Валериан и город тысячи планет через торрент http://img12.lostpic.net/2018/01/25/aa6e6986d8ca9f22e3595cab2a8d066a.png Скачать фильм Валериан и город тысячи планет через торрент бесплантно в хорошем качестве Описание:2700 год. Валериан и Лорелин — космические спецагенты, которые по долгу службы впутались в подозрительное дело и стали невольными ... 9.9 10 23
Info! Золотая раздача, скачанное не засчитывается.
Торрент: Зарегистрирован [2018-01-25 17:42] · скачан: 892 раз
Статус: √ проверено
Размер: 5.92 GB
Как cкачать? Как скачать Валериан и город тысячи планет через торрент | qTorrent

% Раздел Тема Автор DL S | L
Фильмы (HD 720p, 1080p) (48-60 fps) [ 20.2 GB ] Валериан и город тысячи планет / Valerian and the City of a Thousand Planets [2017 NOR-Transfer BDRip 1080p / 60 FPS Dub Original] Tiberiumsun69 Скачать
5 | 0
Фильмы [HD 720p, 1080p] (Хороший звук DUB, MVO) [ 6.14 GB ] Валериан и город тысячи планет / Valerian and the City of a Thousand Planets [2017 BDRip 720p] [NOR-Transfer] DUB [] potroks Скачать
1 | 0

28-11-2019 20:33  

Отключить всю рекламу на сайте

15-04-2018 17:06 Валериан и город тысячи планет Скачать торрент  

Огромное спасибо за раздачу.
Очень понравился фильм. Записываю в любимые и ставлю на одну полку с Аватаром.
Качество превосходное.
Песня Space Oddity Дэвида Боуи в начале фильма просто до мурашек пробирает.
10 из 10pb.wtf



07-10-2020 16:10 Валериан и город тысячи планет Скачать торрент  

Спасибо большое за фильм! Шикарный фильм. bomb yespb.wtf



    Дорогой пользователь! Огромная просьба, поблагодарите релизера, оцените раздачу и оставьте свои комментарий, если Вы скачали Валериан и город тысячи планет через торрент бесплатно! Внесите свою лепту в развитие PiratBit!
    Комментировать посты могут только пользователи прошедшие не сложную регистрацию
    Показать сообщения:    

    Валериан и город тысячи планет через торрент
    Скачать бесплатно Валериан и город тысячи планет
    Валериан и город тысячи планет скачать торрент
    Валериан и город тысячи планет смотреть онлайн
    Cкачать фильм Валериан и город тысячи планет бесплатно
    Валериан и город тысячи планет скачать торрент в хорошем качестве
    Валериан и город тысячи планет смотреть онлайн бесплатно в хорошем качестве


    Вы не можете начинать темы
    Вы не можете отвечать на сообщения
    Вы не можете редактировать свои сообщения
    Вы не можете удалять свои сообщения
    Вы не можете голосовать в опросах
    Вы не можете прикреплять файлы к сообщениям
    Вы можете скачивать файлы