Ссылка на приватное зеркало нашего сайта всего за 1$. Внимание количество ограничено!!!

2 сезон

iTunes

1 сезон

1

iTunes

iTunes

iTunes

1 сезон

RePack

30

ИГРА 18+

pack

ВАЖНО

!!Акция!!

Alien_RageХит недели

RePack

MK11
pack

Забери бонус

RePack

jed

!!Акция!!

Alien_Rage

RePack

fifa19

RePack

Assassins Creed: Odyssey

RePack

NEED FOR SPEED™ PAYBACK

4 сезон

9 сезон

Бесстыжие 9 сезон

Все сериалы

все сериалы на PB.wtf

RePack

FAR CRY 5
  

Последняя статья журналиста / Сезон 1 / Серии 1-16 из 16 (Евгений Сологалов, Виктор Татарский (II), Арменак Назикян) [2018, Детектив, драма, криминальный фильм, WEBRip] pb.wtf

Последняя статья журналиста через торрент pb.wtf

Размер: 10.49 GB | Добавлен: 2 года 8 мес. назад | Торрент скачан:307 раз
Скачать  

25-01-2018 20:42 Последняя статья журналиста Скачать торрент  

Последняя статья журналистаГод выпуска: 2018
Страна: Россия
Жанр: Детектив, драма, криминальный фильм
Продолжительность: x ~ 00:53:00
Субтитры: отсутствуют

Режиссер: Евгений Сологалов, Виктор Татарский (II), Арменак Назикян



В ролях:

Дмитрий Паламарчук, Агния Дитковските, Александр Лыков, Карэн Бадалов, Владимир Стержаков, Иван Бровин, Сергей Апрельский, Сергей Бледных, Владислав Резник, Владимир Кузнецов (VI), Мария Феклистова, Игорь Грабузов, Алёна Кучкова, Оксана Сырцова, Виктор Чупров, Сергей Сафронов, Елена Бердникова, Даниил Кокин, Екатерина Рокотова, Сергей Интяков, Антон Чернов, Андрей Некрасов (II), Владимир Петров (VIII), Михаил Сидаш, Геша Меньшиков, Кирилл Стрелков, Юрий Николаенко, Елена Донина, Александр Иванов (VIII), Игорь Головин, Михаил Касапов, Валерий Малюшин, Дмитрий Сутырин, Александр Аравушкин, Николай Горшков

Описание:

Воспользовавшись гласностью в эпоху большой перестройки, молодой корреспондент «Псковской правды» Олег Верховцев начинает заниматься журналистскими расследованиями. Вместе со своими друзьями и коллегами Суворовым и Изотовым он разоблачает и снимает с должности несколько влиятельных людей. Когда в городе зверски убивают двух девушек, Верховцев не может остаться в стороне. Для сбора улик журналист вместе с друзьями-работниками секретных служб разрабатывает специальный план. Олег, как реальный преступник, садится в камеру для выяснения подробностей дела. Когда задача будет выполнена, его должны вытащить коллеги. Но первоначальный замысел Олега рушится. Его напарники неожиданно погибают в автокатастрофе, а недоброжелатели подтасовывают факты против него. Теперь Верховцеву грозят реальные 15 лет лишения свободы. В его невиновность не верит даже любимая жена Полина. И только мысли о мести помогают Олегу жить...

Качество: WEBRip
Формат: AVI

Видео: XviD, ~ 1800 Кбит/с, 720x400
Аудио: MP3, 2 ch, 128 Кбит/с

Есть реклама!!!
скриншот   скриншот   скриншот   скриншот  

Общее
Полное имя : D:\Poslednyaya_stat`ya_zhurnalista_2016_WEBRip\Poslednyaya_stat`ya_zhurnalista_WEBRip_01.avi
Формат : AVI
Формат/Информация : Audio Video Interleave
Размер файла : 720 Мбайт
Продолжительность : 51 м. 57 с.
Общий поток : 1938 Кбит/сек
Программа кодирования : VirtualDubMod 1.5.10.3 | www.virtualdub-fr.org || (build 2550/release)
Библиотека кодирования : VirtualDubMod build 2550/release

Видео
Идентификатор : 0
Формат : MPEG-4 Visual
Профиль формата : Advanced Simple@L5
Параметр BVOP формата : 2
Параметр QPel формата : Нет
Параметр GMC формата : Без точки перехода
Параметр матрицы формата : Default (H.263)
Идентификатор кодека : XVID
Идентификатор кодека/Подсказка : XviD
Продолжительность : 51 м. 57 с.
Битрейт : 1800 Кбит/сек
Ширина : 720 пикселей
Высота : 400 пикселей
Соотношение сторон : 16:9
Частота кадров : 25,000 кадров/сек
Цветовое пространство : YUV
Субдискретизация насыщенности : 4:2:0
Битовая глубина : 8 бит
Тип развёртки : Прогрессивная
Метод сжатия : С потерями
Бит/(Пиксели*Кадры) : 0.250
Размер потока : 669 Мбайт (93%)
Библиотека кодирования : XviD 1.2.1 (UTC 2008-12-04)

Аудио
Идентификатор : 1
Формат : MPEG Audio
Версия формата : Version 1
Профиль формата : Layer 3
Режим : Joint stereo
Расширение режима : MS Stereo
Идентификатор кодека : 55
Идентификатор кодека/Подсказка : MP3
Продолжительность : 51 м. 57 с.
Вид битрейта : Постоянный
Битрейт : 128 Кбит/сек
Каналы : 2 канала
Частота : 48,0 КГц
Метод сжатия : С потерями
Размер потока : 47,6 Мбайт (7%)
Выравнивание : Соединение по промежуткам
Продолжительность промежутка : 40 мс. (1,00 видеокадр)
Время предзагрузки промежутка : 504 мс.
Библиотека кодирования : LAME3.99r
Настройки программы : -m j -V 4 -q 9 -lowpass 17 -b 128

pb.wtf



Скачать Последняя статья журналиста через торрент http://img12.lostpic.net/2018/01/21/88fc1157766ccd9a880677517fa758f9.jpg Скачать фильм Последняя статья журналиста через торрент бесплантно в хорошем качестве Описание: Воспользовавшись гласностью в эпоху большой перестройки, молодой корреспондент «Псковской правды» Олег Верховцев начинает ... 9.8 10 12
Торрент: Зарегистрирован [2018-01-25 20:42] · скачан: 307 раз
Статус: √ проверено
Размер: 10.49 GB
Как cкачать? Как скачать Последняя статья журналиста через торрент | qTorrent

% Раздел Тема Автор DL S | L
Наши сериалы [ 9.92 GB ] Последняя статья журналиста / Сезон: 1 / Серии: 1-16 из 16 Арменак Назикян) [2018 HDTVRip] bober100 Скачать
1 | 0
Наши сериалы [ 17.98 GB ] Последняя статья журналиста / Сезон 1 / Серии 1-16 из 16 Арменак Назикян) [2018 WEB-DL 720p] bober100 Скачать
1 | 0
Наши сериалы [ 34.76 GB ] Последняя статья журналиста / Сезон 1 / Серии 1-16 из 16 Арменак Назикян) [2018 WEB-DL 1080p] bober100 Скачать
1 | 0
Наши сериалы [ 10.42 GB ] Последняя статья журналиста / Сезон 1 / Серии 1-16 из 16 Арменак Назикян) [2018 ьный фильм WEB-DLRip] bober100 Скачать
1 | 0


Последний раз редактировалось: bober100 (2018-01-25 21:00), всего редактировалось 2 раз(а)

28-11-2019 20:33  

Отключить всю рекламу на сайте

25-01-2018 20:43 Последняя статья журналиста Скачать торрент  

Сезон полностью!!!pb.wtf



03-02-2018 10:36 Последняя статья журналиста Скачать торрент  

Мощный сериал,рекомендую к просмотру.pb.wtf



    Дорогой пользователь! Огромная просьба, поблагодарите релизера, оцените раздачу и оставьте свои комментарий, если Вы скачали Последняя статья журналиста через торрент бесплатно! Внесите свою лепту в развитие PiratBit!
    Комментировать посты могут только пользователи прошедшие не сложную регистрацию
    Показать сообщения:    

    Последняя статья журналиста через торрент
    Скачать бесплатно Последняя статья журналиста
    Последняя статья журналиста скачать торрент
    Последняя статья журналиста смотреть онлайн
    Cкачать фильм Последняя статья журналиста бесплатно
    Последняя статья журналиста скачать торрент в хорошем качестве
    Последняя статья журналиста смотреть онлайн бесплатно в хорошем качестве


    Вы не можете начинать темы
    Вы не можете отвечать на сообщения
    Вы не можете редактировать свои сообщения
    Вы не можете удалять свои сообщения
    Вы не можете голосовать в опросах
    Вы не можете прикреплять файлы к сообщениям
    Вы можете скачивать файлы