Ссылка на приватное зеркало нашего сайта всего за 1$. Внимание количество ограничено!!!

2 сезон

iTunes

1 сезон

1

2 сезон

2 сезон

iTunes

1 сезон

RePack

30

Ultimate

ВАЖНО

ИГРА 18+

pack

RePack

MK11
pack

Забери бонус

RePack

jed

!!Акция!!

Alien_Rage

RePack

fifa19

RePack

Assassins Creed: Odyssey

RePack

NEED FOR SPEED™ PAYBACK

4 сезон

9 сезон

Бесстыжие 9 сезон

Все сериалы

все сериалы на PB.wtf

RePack

FAR CRY 5
  

Уэйко / Трагедия в Уэйко / Waco / Сезон: 1 / Серии 1-6 из 6 (Джон Эрик Даудл, Дэнни Гордон) [2018, США, триллер, драма, криминал, WEB-DLRip] MVO [BaibaKo] pb.wtf

Уэйко через торрент pb.wtf

Размер: 3.33 GB | Добавлен: 2 года 8 мес. назад | Торрент скачан:17 раз
Скачать  

26-01-2018 03:05 Уэйко Скачать торрент  

Уэйко / Трагедия в Уэйко / Waco


  • Год выпуска: 2018
  • Страна: США
  • Жанр: триллер, драма, криминал
  • Продолжительность: ~ 00:50:00 (Серия)
  • Перевод: Профессиональный многоголосый [BaibaKo]
  • Режиссер: Джон Эрик Даудл, Дэнни Гордон
  • В ролях:
    Тейлор Китч, Майкл Шеннон, Демор Барнс, Мелисса Бенойст, Рори Калкин, Дункан Джойнер, Джон Легуизамо, Анника Маркс, Андреа Райзборо, Пол Спаркс и др.



  • Минисериал основан на трагических событиях весны 1993 года, когда жители ранчо «Маунт Кармел» были заподозрены в незаконном хранении оружия. В ходе облавы завязалась перестрелка, которая привела к вооруженному противостоянию между сектантами и агентами ФБР, продлившемуся 51 день.
  • Рейтинг:

    rating
  • Качество: WEB-DLRip
  • Формат: :AVI
  • Видео кодек: XviD
  • Аудио кодек: MP3
  • Видео: 1447 Кбит/сек, 720*400 (16:9), в 23,976 (24000/1001) кадра/сек, MPEG-4 Visual (XviD)
  • Аудио №1: русский 192 Кбит/сек, 48,0 КГц, 2 канала, MPEG Audio (MP3) |[BaibaKo]|
  • Релиз от: GEKADOL

    Внимание! Раздача ведётся путём добавления новых серий; при каждом добавлении создаётся новый торрент. Чтобы начать докачку новой серии, пользователям необходимо сделать следующее:
    (1) остановить скачивание,
    (2) удалить старый торрент у себя из клиента (старые серии удалять не надо),
    (3) скачать новый торрент и запустить его у себя в клиенте вместо старого, при этом указать клиенту путь в старую папку куда и должно происходить скачивание новых серий.
    Ваш клиент при этом должен произвести хеширование (проверку) старой папки (если не производит сам - помогите ему сделать это), и будет докачивать только те серии которых у вас ещё нет. Старые серии при этом не удаляются, а продолжают раздаваться!
    Eсли вы уже удалили старые серии, то предотвратить повторную закачку старых серий можно, отжав галочку в соответствующих местах при запуске нового торрента. По возможности, желательно не удалять старые серии как можно дольше чтобы релизёр не столько продолжал раздавать старые серии, а смог сконцентрироваться на новых.
    Общее
    Полное имя : F:\Загрузки\Уэйко (Waco)\Waco.s01e01.WEB-DLRip.XviD.Rus.Eng.BaibaKo.tv.avi
    Формат : AVI
    Формат/Информация : Audio Video Interleave
    Размер файла : 559 Мбайт
    Продолжительность : 47 м. 23 с.
    Общий поток : 1649 Кбит/сек
    Библиотека кодирования : Boilsoft AVI tool build 30012/release

    Видео
    Идентификатор : 0
    Формат : MPEG-4 Visual
    Профиль формата : Advanced Simple@L5
    Настройки формата : BVOP2
    Параметр BVOP формата : 2
    Параметр QPel формата : Нет
    Параметр GMC формата : Без точки перехода
    Параметр матрицы формата : Default (H.263)
    Идентификатор кодека : XVID
    Идентификатор кодека/Подсказка : XviD
    Продолжительность : 47 м. 23 с.
    Битрейт : 1447 Кбит/сек
    Ширина : 720 пикселей
    Высота : 400 пикселей
    Соотношение сторон : 16:9
    Частота кадров : 23,976 (24000/1001) кадра/сек
    Цветовое пространство : YUV
    Субдискретизация насыщенности : 4:2:0
    Битовая глубина : 8 бит
    Тип развёртки : Прогрессивная
    Метод сжатия : С потерями
    Бит/(Пиксели*Кадры) : 0.210
    Размер потока : 491 Мбайт (88%)
    Библиотека кодирования : XviD 65

    Аудио
    Идентификатор : 1
    Формат : MPEG Audio
    Версия формата : Version 1
    Профиль формата : Layer 3
    Настройки формата : Joint stereo / MS Stereo
    Идентификатор кодека : 55
    Идентификатор кодека/Подсказка : MP3
    Продолжительность : 47 м. 23 с.
    Вид битрейта : Постоянный
    Битрейт : 192 Кбит/сек
    Каналы : 2 канала
    Частота : 48,0 КГц
    Метод сжатия : С потерями
    Задержка видео : 17 мс.
    Размер потока : 65,1 Мбайт (12%)
    Выравнивание : Разделение по промежуткам
    Продолжительность промежутка : 42 мс. (1,00 видеокадр)
    Время предзагрузки промежутка : 500 мс.
    Библиотека кодирования : LAME3.99`



    Скриншоты:
    скриншот   скриншот   скриншот   скриншот   скриншот   скриншот   скриншот  
    скриншот  

    Раздача ведётся путём добавления новых серий. Добавлена 6 серия (03.03.2018).Просьба перекачать торрент файл.

    pb.wtf



  • Скачать Уэйко через торрент http://pic1.kartinco.top/images/11/tkz7v.jpg Скачать фильм Уэйко через торрент бесплантно в хорошем качестве qw.png Минисериал основан на трагических событиях весны 1993 года, когда жители ранчо «Маунт Кармел» были заподозрены в незаконном ... 5.8 10 6
    Info! Золотая раздача, скачанное не засчитывается.
    Торрент: Зарегистрирован [2018-03-03 00:11] · скачан: 17 раз
    Статус: √ проверено
    Размер: 3.33 GB
    Как cкачать? Как скачать Уэйко через торрент | qTorrent

    % Раздел Тема Автор DL S | L
    Зарубежные сериалы [ 15.87 GB ] Трагедия в Уэйко / Waco / Сезон: 1 / Серия: 1-6 из 6 [2018 WEB-DL 1080p] DVO [Кубик в Кубе] bober100 Скачать
    2 | 0
    Зарубежные сериалы [ 6.08 GB ] Трагедия в Уэйко / Waco / Сезон: 1 / Серии: 1-6 из 6 [2018 WEBRip 720p] MVO [Jaskier] bober100 Скачать
    1 | 0
    Зарубежные сериалы [ 15.86 GB ] Трагедия в Уэйко / Waco / Сезон: 1 / Серии: 1-6 из 6 [2018 WEBRip 1080p] MVO [Jaskier] bober100 Скачать
    1 | 0
    Зарубежные сериалы [ 3.62 GB ] Трагедия в Уэйко / Waco / Сезон: 1 / Серии: 1-6 из 6 [2018 WEBRip] MVO [Jaskier] bober100 Скачать
    1 | 0
    Зарубежные сериалы [ 15.94 GB ] Трагедия в Уэйко / Waco / Сезон: 1 / Серии 1-6 из 6 [2018 WEB-DL 1080p] [MVO] killermax2013 Скачать
    1 | 0
    Зарубежные сериалы [ 15.89 GB ] Трагедия в Уэйко / Waco / Сезон: 1 / Серия: 1-6 из 6 [2018 WEB-DL 1080p] MVO [NewStudio] bober100 Скачать
    1 | 0
    Зарубежные сериалы [ 5.8 GB ] Трагедия в Уэйко / Waco / Сезон: 1 / Серии: 1-6 из 6 [2018 WEB-DL 720p] MVO [NewStudio] bober100 Скачать
    1 | 0

    28-11-2019 20:33  

    Отключить всю рекламу на сайте

      Дорогой пользователь! Огромная просьба, поблагодарите релизера, оцените раздачу и оставьте свои комментарий, если Вы скачали Уэйко через торрент бесплатно! Внесите свою лепту в развитие PiratBit!
      Комментировать посты могут только пользователи прошедшие не сложную регистрацию
      Показать сообщения:    

      Уэйко через торрент
      Скачать бесплатно Уэйко
      Уэйко скачать торрент
      Уэйко смотреть онлайн
      Cкачать фильм Уэйко бесплатно
      Уэйко скачать торрент в хорошем качестве
      Уэйко смотреть онлайн бесплатно в хорошем качестве


      Вы не можете начинать темы
      Вы не можете отвечать на сообщения
      Вы не можете редактировать свои сообщения
      Вы не можете удалять свои сообщения
      Вы не можете голосовать в опросах
      Вы не можете прикреплять файлы к сообщениям
      Вы можете скачивать файлы