Ссылка на приватное зеркало нашего сайта всего за 1$. Внимание количество ограничено!!!

2 сезон

iTunes

1 сезон

1

2 сезон

2 сезон

iTunes

1 сезон

RePack

30

Ultimate

ВАЖНО

ИГРА 18+

pack

RePack

MK11
pack

Забери бонус

RePack

jed

!!Акция!!

Alien_Rage

RePack

fifa19

RePack

Assassins Creed: Odyssey

RePack

NEED FOR SPEED™ PAYBACK

4 сезон

9 сезон

Бесстыжие 9 сезон

Все сериалы

все сериалы на PB.wtf

RePack

FAR CRY 5
  

Уэйко / Трагедия в Уэйко / Waco / Сезон: 1 / Серии 1-6 из 6 (Джон Эрик Даудл, Дэнни Гордон) [2018, США, триллер, драма, криминал, WEB-DL 720p] MVO [BaibaKo] pb.wtf

Уэйко через торрент pb.wtf

Размер: 9.87 GB | Добавлен: 2 года 8 мес. назад | Торрент скачан:23 раза
Скачать  

26-01-2018 04:05 Уэйко Скачать торрент  

Уэйко / Трагедия в Уэйко / Waco


  • Год выпуска: 2018
  • Страна: США
  • Жанр: триллер, драма, криминал
  • Продолжительность: ~ 00:50:00 (Серия)
  • Перевод: Профессиональный многоголосый [BaibaKo]
  • Режиссер: Джон Эрик Даудл, Дэнни Гордон
  • В ролях:
    Тейлор Китч, Майкл Шеннон, Демор Барнс, Мелисса Бенойст, Рори Калкин, Дункан Джойнер, Джон Легуизамо, Анника Маркс, Андреа Райзборо, Пол Спаркс и др.



  • Минисериал основан на трагических событиях весны 1993 года, когда жители ранчо «Маунт Кармел» были заподозрены в незаконном хранении оружия. В ходе облавы завязалась перестрелка, которая привела к вооруженному противостоянию между сектантами и агентами ФБР, продлившемуся 51 день.
  • Рейтинг:

    rating
  • Качество: WEB-DL 720p
  • Формат: :MKV
  • Видео кодек: AVC
  • Аудио кодек: AC-3
  • Видео: 4113 Кбит/сек, 1280*720 (16:9), в 23,976 (24000/1001) кадра/сек, AVC
  • Аудио №1: русский 384 Кбит/сек, 48,0 КГц, 16 бит, 2 канала, AC-3 |[BaibaKo]|
  • Аудио №1: английский 384 Кбит/сек, 48,0 КГц, 16 бит, 2 канала, AC-3
  • Релиз от: GEKADOL

    Внимание! Раздача ведётся путём добавления новых серий; при каждом добавлении создаётся новый торрент. Чтобы начать докачку новой серии, пользователям необходимо сделать следующее:
    (1) остановить скачивание,
    (2) удалить старый торрент у себя из клиента (старые серии удалять не надо),
    (3) скачать новый торрент и запустить его у себя в клиенте вместо старого, при этом указать клиенту путь в старую папку куда и должно происходить скачивание новых серий.
    Ваш клиент при этом должен произвести хеширование (проверку) старой папки (если не производит сам - помогите ему сделать это), и будет докачивать только те серии которых у вас ещё нет. Старые серии при этом не удаляются, а продолжают раздаваться!
    Eсли вы уже удалили старые серии, то предотвратить повторную закачку старых серий можно, отжав галочку в соответствующих местах при запуске нового торрента. По возможности, желательно не удалять старые серии как можно дольше чтобы релизёр не столько продолжал раздавать старые серии, а смог сконцентрироваться на новых.
    Общее
    Уникальный идентификатор : 252207019251969839330032287095956471642 (0xBDBD4E1829C9A7C4BCC1006A5B987F5A)
    Полное имя : F:\Загрузки\Уэйко (Waco) 720\Waco.s01e01.HD720p.WEB-DL.Rus.Eng.BaibaKo.tv.mkv
    Формат : Matroska
    Версия формата : Version 4 / Version 2
    Размер файла : 1,62 Гбайт
    Продолжительность : 47 м. 22 с.
    Общий поток : 4883 Кбит/сек
    Дата кодирования : UTC 2018-01-26 03:51:58
    Программа кодирования : mkvmerge v18.0.0 ('Apricity') 64-bit
    Библиотека кодирования : libebml v1.3.5 + libmatroska v1.4.8

    Видео
    Идентификатор : 1
    Формат : AVC
    Формат/Информация : Advanced Video Codec
    Профиль формата : High@L4.1
    Настройки формата : CABAC / 4 Ref Frames
    Параметр CABAC формата : Да
    Параметр RefFrames формата : 4 кадра
    Идентификатор кодека : V_MPEG4/ISO/AVC
    Продолжительность : 47 м. 22 с.
    Битрейт : 4113 Кбит/сек
    Ширина : 1280 пикселей
    Высота : 720 пикселей
    Соотношение сторон : 16:9
    Режим частоты кадров : Постоянный
    Частота кадров : 23,976 (24000/1001) кадра/сек
    Цветовое пространство : YUV
    Субдискретизация насыщенности : 4:2:0
    Битовая глубина : 8 бит
    Тип развёртки : Прогрессивная
    Бит/(Пиксели*Кадры) : 0.186
    Размер потока : 1,36 Гбайт (84%)
    Default : Да
    Forced : Нет

    Аудио #1
    Идентификатор : 2
    Формат : AC-3
    Формат/Информация : Audio Coding 3
    Идентификатор кодека : A_AC3
    Продолжительность : 47 м. 22 с.
    Вид битрейта : Постоянный
    Битрейт : 384 Кбит/сек
    Каналы : 2 канала
    Расположение каналов : Front: L R
    Частота : 48,0 КГц
    Частота кадров : 31,250 кадров/сек (1536 SPF)
    Битовая глубина : 16 бит
    Метод сжатия : С потерями
    Задержка видео : 30 мс.
    Размер потока : 130 Мбайт (8%)
    Язык : Russian
    ServiceKind/String : Complete Main
    Default : Да
    Forced : Нет

    Аудио #2
    Идентификатор : 3
    Формат : AC-3
    Формат/Информация : Audio Coding 3
    Идентификатор кодека : A_AC3
    Продолжительность : 47 м. 22 с.
    Вид битрейта : Постоянный
    Битрейт : 384 Кбит/сек
    Каналы : 2 канала
    Расположение каналов : Front: L R
    Частота : 48,0 КГц
    Частота кадров : 31,250 кадров/сек (1536 SPF)
    Битовая глубина : 16 бит
    Метод сжатия : С потерями
    Задержка видео : 20 мс.
    Размер потока : 130 Мбайт (8%)
    Язык : English
    ServiceKind/String : Complete Main
    Default : Нет
    Forced : Нет



    Скриншоты:
    скриншот   скриншот   скриншот   скриншот   скриншот   скриншот   скриншот  
    скриншот  

    Раздача ведётся путём добавления новых серий. Добавлена 6 серия (03.03.2018).Просьба перекачать торрент файл.

    pb.wtf



  • Скачать Уэйко через торрент http://pic1.kartinco.top/images/11/tkz7v.jpg Скачать фильм Уэйко через торрент бесплантно в хорошем качестве qw.png Минисериал основан на трагических событиях весны 1993 года, когда жители ранчо «Маунт Кармел» были заподозрены в незаконном ... 10 10 2
    Info! Золотая раздача, скачанное не засчитывается.
    Торрент: Зарегистрирован [2018-03-03 00:12] · скачан: 23 раз
    Статус: √ проверено
    Размер: 9.87 GB
    Как cкачать? Как скачать Уэйко через торрент | qTorrent

    % Раздел Тема Автор DL S | L
    Зарубежные сериалы [ 15.87 GB ] Трагедия в Уэйко / Waco / Сезон: 1 / Серия: 1-6 из 6 [2018 WEB-DL 1080p] DVO [Кубик в Кубе] bober100 Скачать
    1 | 0
    Зарубежные сериалы [ 6.08 GB ] Трагедия в Уэйко / Waco / Сезон: 1 / Серии: 1-6 из 6 [2018 WEBRip 720p] MVO [Jaskier] bober100 Скачать
    1 | 0
    Зарубежные сериалы [ 15.86 GB ] Трагедия в Уэйко / Waco / Сезон: 1 / Серии: 1-6 из 6 [2018 WEBRip 1080p] MVO [Jaskier] bober100 Скачать
    1 | 0
    Зарубежные сериалы [ 3.62 GB ] Трагедия в Уэйко / Waco / Сезон: 1 / Серии: 1-6 из 6 [2018 WEBRip] MVO [Jaskier] bober100 Скачать
    1 | 0
    Зарубежные сериалы [ 15.94 GB ] Трагедия в Уэйко / Waco / Сезон: 1 / Серии 1-6 из 6 [2018 WEB-DL 1080p] [MVO] killermax2013 Скачать
    1 | 0
    Зарубежные сериалы [ 15.89 GB ] Трагедия в Уэйко / Waco / Сезон: 1 / Серия: 1-6 из 6 [2018 WEB-DL 1080p] MVO [NewStudio] bober100 Скачать
    1 | 0
    Зарубежные сериалы [ 5.8 GB ] Трагедия в Уэйко / Waco / Сезон: 1 / Серии: 1-6 из 6 [2018 WEB-DL 720p] MVO [NewStudio] bober100 Скачать
    3 | 0

    28-11-2019 20:33  

    Отключить всю рекламу на сайте

      Дорогой пользователь! Огромная просьба, поблагодарите релизера, оцените раздачу и оставьте свои комментарий, если Вы скачали Уэйко через торрент бесплатно! Внесите свою лепту в развитие PiratBit!
      Комментировать посты могут только пользователи прошедшие не сложную регистрацию
      Показать сообщения:    

      Уэйко через торрент
      Скачать бесплатно Уэйко
      Уэйко скачать торрент
      Уэйко смотреть онлайн
      Cкачать фильм Уэйко бесплатно
      Уэйко скачать торрент в хорошем качестве
      Уэйко смотреть онлайн бесплатно в хорошем качестве


      Вы не можете начинать темы
      Вы не можете отвечать на сообщения
      Вы не можете редактировать свои сообщения
      Вы не можете удалять свои сообщения
      Вы не можете голосовать в опросах
      Вы не можете прикреплять файлы к сообщениям
      Вы можете скачивать файлы