Всегда рабочее зеркало без VPN и Proxy просто перед .vidak.icu напиши любое слово или цифру, Пример http://xewy.vidak.icu

Лицензия

MVO

1 сезон

1

1 сезон

iTunes

1 сезон

13

1 сезон

Deluxe

pack

Рекомендуем

Repack

30

ВАЖНО

RePack

MK11

RePack

jed

RePack

fifa19

RePack

RDR2

RePack

NEED FOR SPEED™ PAYBACK

Кинопоиск HD

6 сезон

 Острые козырьки 6 сезон

Все сериалы

все сериалы на PB.wtf

RePack

FAR CRY 5
  
Magnet ссылка

Тепло наших тел / Warm Bodies (Джонатан Левин) [2013, Ужасы, мелодрама, комедия, UHD BDRemux 2160p] Дубляж - [Лицензия] pb.wtf

Тепло наших тел через торрент pb.wtf

Размер: 56.9 GB | Добавлен: 4 года 6 мес. назад | Торрент скачан:21 раз
Смотреть онлайн Тепло наших тел | Скачать    Ребята, помогите собрать деньги на оплату серверов!!!

26-01-2018 04:59 Тепло наших тел Скачать торрент  

Тепло наших тел / Warm Bodies«Он всё ещё мёртв, но сердце снова бьётся»
Год выпуска: 2013
Страна: США
Жанр: Ужасы, мелодрама, комедия
Продолжительность: 01:37:45
Перевод: Дублированный, любительский одноголосый
Субтитры: Русские, английские
Режиссер: Джонатан Левин
В ролях:

Николас Холт (R), Тереза Палмер (Julie), Анали Типтон (Nora), Роб Кордри (M), Дэйв Франко (Perry), Джон Малкович (Grigio), Кори Хардрикт (Kevin), Дэниэл Риндресс-Кей (Soldier #1), Винсент Леклерк (Perry's Dad), Клиффорд ЛеДюк-Вайанкур (Boy at Airport), Билли Кальмо (Girl at Airport), Адам Дрисколл (Young Man at ATM)
Описание:
По одноимённому роману Айзека Мариона. Мир поражен чумой и стоит на грани вымирания. Покойники ходят по земле и норовят употребить в пищу живых, которые, оставшись в катастрофическом меньшинстве, с трудом держат оборону. Перемены начинаются, когда один зомби, чье имя при жизни начиналось на «Р», спасает девушку вместо того, чтобы ее съесть. Дружба, завязавшаяся между представителями враждующих сторон, грозит обоим самыми нехорошими последствиями. Но Р и Джули, сами того не подозревая, держат в руках простой и единственный ключ к спасению гибнущего мира.
Рейтинг:

Качество: UHD BDRemux 2160p
Формат: MKV
Видео: HEVC, 74496 Кбит/с, 3840x2160, 23.976 кадр/с
Аудио №1: русский / AC3, 5.1, 48 kHz, 448 Кбит/с - Дубляж
Аудио №2: русский / DTS-HD MA, 6 ch, 3854 Кбит/с - den904
Аудио №3: украинский / АС3, 6 ch, 384 Кбит/с - Дубляж
Аудио №4: английский / АС3, 2 ch, 192 Кбит/с
Аудио №5: английский / DTS-HD MA, 8 ch, 3949 Кбит/с
Навигация по главам: есть
Complete name : D:\Warm.Bodies.2013.UHD.HDR.BDRemux.2160p.NovaLan.mkv
Format : Matroska
Format version : Version 4 / Version 2
File size : 56.9 GiB
Duration : 1 h 37 min
Overall bit rate : 83.3 Mb/s
Movie name : Warm Bodies 2013 - NovaLan
Encoded date : UTC 2018-01-25 02:52:46
Writing application : mkvmerge v20.0.0 ('I Am The Sun') 64-bit
Writing library : libebml v1.3.5 + libmatroska v1.4.8

Video
ID : 1
Format : HEVC
Format/Info : High Efficiency Video Coding
Format profile : Main [email protected]@High
Codec ID : V_MPEGH/ISO/HEVC
Duration : 1 h 37 min
Bit rate : 74.5 Mb/s
Width : 3 840 pixels
Height : 2 160 pixels
Display aspect ratio : 16:9
Frame rate mode : Constant
Frame rate : 23.976 (24000/1001) FPS
Color space : YUV
Chroma subsampling : 4:2:0 (Type 2)
Bit depth : 10 bits
Bits/(Pixel*Frame) : 0.375
Stream size : 50.9 GiB (89%)
Title : Warm Bodies 2013 - NovaLan
Default : Yes
Forced : No
Color range : Limited
Color primaries : BT.2020
Transfer characteristics : PQ
Matrix coefficients : BT.2020 non-constant
Mastering display color pri : Display P3
Mastering display luminance : min: 0.0050 cd/m2, max: 1000 cd/m2
Maximum Content Light Level : 1000 cd/m2
Maximum Frame-Average Light : 1000 cd/m2

Audio #1
ID : 2
Format : AC-3
Format/Info : Audio Coding 3
Codec ID : A_AC3
Duration : 1 h 37 min
Bit rate mode : Constant
Bit rate : 448 kb/s
Channel(s) : 6 channels
Channel positions : Front: L C R, Side: L R, LFE
Sampling rate : 48.0 kHz
Frame rate : 31.250 FPS (1536 SPF)
Bit depth : 16 bits
Compression mode : Lossy
Stream size : 313 MiB (1%)
Language : Russian
Service kind : Complete Main
Default : Yes
Forced : No

Audio #2
ID : 3
Format : DTS
Format/Info : Digital Theater Systems
Format profile : MA / Core
Codec ID : A_DTS
Duration : 1 h 37 min
Bit rate mode : Variable / Constant
Bit rate : 3 840 kb/s / 1 509 kb/s
Channel(s) : 6 channels
Channel positions : Front: L C R, Side: L R, LFE
Sampling rate : 48.0 kHz
Frame rate : 93.750 FPS (512 SPF)
Bit depth : 24 bits
Compression mode : Lossless / Lossy
Stream size : 2.63 GiB (5%)
Language : Russian
Default : No
Forced : No

Audio #3
ID : 4
Format : AC-3
Format/Info : Audio Coding 3
Codec ID : A_AC3
Duration : 1 h 37 min
Bit rate mode : Constant
Bit rate : 384 kb/s
Channel(s) : 6 channels
Channel positions : Front: L C R, Side: L R, LFE
Sampling rate : 48.0 kHz
Frame rate : 31.250 FPS (1536 SPF)
Bit depth : 16 bits
Compression mode : Lossy
Stream size : 268 MiB (0%)
Language : Ukrainian
Service kind : Complete Main
Default : No
Forced : No

Audio #4
ID : 5
Format : DTS
Format/Info : Digital Theater Systems
Format profile : MA / Core
Codec ID : A_DTS
Duration : 1 h 37 min
Bit rate mode : Variable / Constant
Bit rate : 3 948 kb/s / 1 509 kb/s
Channel(s) : 8 channels / 6 channels
Channel positions : Front: L C R, Side: L R, Back: L R, LFE / Front: L C R, Side: L R, LFE
Sampling rate : 48.0 kHz
Frame rate : 93.750 FPS (512 SPF)
Bit depth : 24 bits
Compression mode : Lossless / Lossy
Stream size : 2.70 GiB (5%)
Language : English
Default : No
Forced : No

Audio #5
ID : 6
Format : AC-3
Format/Info : Audio Coding 3
Codec ID : A_AC3
Duration : 1 h 37 min
Bit rate mode : Constant
Bit rate : 192 kb/s
Channel(s) : 2 channels
Channel positions : Front: L R
Sampling rate : 48.0 kHz
Frame rate : 31.250 FPS (1536 SPF)
Bit depth : 16 bits
Compression mode : Lossy
Stream size : 134 MiB (0%)
Language : English
Service kind : Complete Main
Default : No
Forced : No

Text #1
ID : 7
Format : UTF-8
Codec ID : S_TEXT/UTF8
Codec ID/Info : UTF-8 Plain Text
Duration : 1 h 30 min
Bit rate : 58 b/s
Count of elements : 627
Stream size : 38.6 KiB (0%)
Language : Russian
Default : No
Forced : No

Text #2
ID : 8
Format : UTF-8
Codec ID : S_TEXT/UTF8
Codec ID/Info : UTF-8 Plain Text
Duration : 1 h 30 min
Bit rate : 37 b/s
Count of elements : 897
Stream size : 24.8 KiB (0%)
Language : English
Default : No
Forced : No

Menu
00:00:00.000 : en:Chapter 1
00:08:02.523 : en:Chapter 2
00:14:05.219 : en:Chapter 3
00:19:23.662 : en:Chapter 4
00:24:31.595 : en:Chapter 5
00:31:16.416 : en:Chapter 6
00:38:02.405 : en:Chapter 7
00:44:21.116 : en:Chapter 8
00:49:55.367 : en:Chapter 9
00:55:43.340 : en:Chapter 10
00:59:49.752 : en:Chapter 11
01:03:37.522 : en:Chapter 12
01:11:12.518 : en:Chapter 13
01:17:32.272 : en:Chapter 14
01:22:18.058 : en:Chapter 15
01:27:23.947 : en:Chapter 16
pb.wtf



Скачать Тепло наших тел через торрент http://i101.fastpic.ru/big/2018/0126/12/3f3231083a7c67583c144699db8e1712.png Скачать, смотреть онлайн Тепло наших тел бесплантно в хорошем качестве Описание: По одноимённому роману Айзека Мариона. Мир поражен чумой и стоит на грани вымирания. Покойники ходят по земле и норовят ... 10 10 2
Торрент: Зарегистрирован [2018-01-26 04:59] · скачан: 21 раз
Статус: √ проверено
Размер: 56.9 GB
Как cкачать? Как скачать Тепло наших тел через торрент | UTorrent

% Раздел Тема Автор DL S | L
Ultra HD (UHD: 2K, 4K, 8K) — видео сверхвысокой чёткости [ 67.24 GB ] Тепло наших тел / Warm Bodies [2013 UHD BDRemux 2160p ] DUB [] +VO [den904] bober100 Скачать
1 | 0
Фильмы [HD 720p, 1080p] (Хороший звук DUB, MVO) [ 4.66 GB ] Тепло наших тел / Warm Bodies [2013 BDRip 720p by msltel] DUB VO msltel Скачать
1 | 0
Фильмы [HD 720p, 1080p] (Хороший звук DUB, MVO) [ 13.49 GB ] Тепло наших тел / Warm Bodies [2013 BDRip 1080p by msltel] DUB VO msltel Скачать
1 | 0
Фильмы 2013 [DVDrip, WEB-DLRip, HDrip] [ 1.46 GB ] Тепло наших тел / Warm Bodies [2013 HDRip ] Ворон Скачать
1 | 0
Фильмы [HD 720p, 1080p] (Хороший звук DUB, MVO) [ 4.89 GB ] Тепло наших тел / Warm Bodies [2013 BDRip 720p -=DANTE=- Скачать
1 | 0
Видео для КПК и Смартфонов [ 335 MB ] Тепло наших тел / Warm Bodies BDRip от R.G.RealMT / КПК / Open Matte / НТВ+ Страна Скачать
1 | 0
Видео для КПК и Смартфонов [ 845 MB ] Тепло наших тел / Warm Bodies BDRip от R.G.RealMT / КПК / Open Matte / НТВ+ Страна Скачать
1 | 0

28-11-2019 20:33  

Отключить вcю реклaмy на сайте

    Дорогой пользователь! Огромная просьба, поблагодарите релизера, оцените раздачу и оставьте свои комментарий, если Вы скачали Тепло наших тел через торрент бесплатно!
    Комментировать посты могут только пользователи прошедшие не сложную регистрацию
    Показать сообщения:    

    Тепло наших тел через торрент
    Скачать бесплатно Тепло наших тел
    Тепло наших тел скачать торрент
    Тепло наших тел смотреть онлайн
    Cкачать фильм Тепло наших тел бесплатно
    Тепло наших тел скачать торрент в хорошем качестве
    Тепло наших тел смотреть онлайн бесплатно в хорошем качестве


    Вы не можете начинать темы
    Вы не можете отвечать на сообщения
    Вы не можете редактировать свои сообщения
    Вы не можете удалять свои сообщения
    Вы не можете голосовать в опросах
    Вы не можете прикреплять файлы к сообщениям
    Вы можете скачивать файлы