Достать ножи: Стеклянная луковица

MVO

Добыча

Дубляж

Уэнсдэй

1 сезон

Тор

Дубляж

13 клиническая

1 сезон

Жестокая ночь

MVO

Одни из нас

1 сезон

Deluxe

pack

Рекомендуем

30

Пиратка

ВАЖНО

ВАЖНО

Ghostwire

Пиратка

jed

RePack

nioh2

RePack

RDR2

RePack

NEED FOR SPEED™ PAYBACK

RePack

скачать торрент

Кинопоиск HD

Острые козырьки 6 сезон

6 сезон

FAR CRY 6

RePack

скачать торрент

Лицензия

скачать торрент

MVO

1

1 сезон

скачать торрент

1 сезон

скачать торрент

Лицензия

  

Пятница 13-е / Friday the 13th (Маркус Ниспел) [2009, Ужасы, ремейк, слэшер, BDRip 1080p] Дубляж [Театральная версия] [Лицензия]

Пятница 13-е через торрент pb.wtf

Качают: 1 [ 0 KB/s ]
Размер: 8.24 GB | Добавлен: 5 лет назад | Торрент скачан:202 раза
Смотреть онлайн | Скачать | Поддержите нас   

26-01-2018 05:28 Пятница 13-е Скачать торрент  

Пятница 13-е / Friday the 13th
| Театральная версия |
Год выпуска: 2009
Страна: США
Жанр: Ужасы, ремейк, слэшер
Продолжительность: 01:37:11
Перевод: Дублированный | Лицензия
Субтитры: Русские (full), английские

Режиссер: Маркус Ниспел

rating

В ролях:

Джаред Падалеки, Даниэль Панабэйкер, Аманда Ригетти, Трэвис Ван Винкл, Аарон Ю, Дерек Мирс, Джонатан Садовский, Джулианна Гуилл, Бен Фельдман, Арлен Эскарпета, Райан Хансен, Уилла Форд, Ник Меннелл, Америка Оливо, Кайл Дэвис, Ричард Бёрджи, Крис Коппола, Розмари Ноуэр, Боб Кинг, Нана Визитор, Стефани Родс, Калеб Гусс, Трэвис Дэвис, Кэтлин Гаррет

Описание:

Молодые друзья Уитни, Майк, Ричи, Аманда и Уэйд заблудились в лесах около заброшенного лагеря «Хрустальное озеро». Когда их любопытство взяло верх, они решили посетить то место, где когда-то обитал убийца-психопат. Тем временем Трент приглашает друзей: Джену, Брии, Чеви, Челси, Лоуренса и Нолана в его хижину, расположенную у озера, на уикэнд, полный секса, выпивки и наркотиков. Однако их забавный уикэнд, по-видимому, скоро перерастет в кошмар после того, как одинокий путешественник Клэй начинает поиски своей пропавшей сестры Уитни, и молодые тинейджеры вскоре оказываются лицом к лицу со злом, заново рожденным, невообразимым, и усовершенствованным, его имя Джейсон Вурхиз!

Качество: BDRip 1080p
Формат: MKV

Видео: MPEG-4 AVC, 1920x800, 10.0 Mbit/s, 23.976 fps
Аудио#1: 48 kHz, AC3, 5.1, 640 Kbps | Дублированный | RUS |
Аудио#2: 48 kHz, DTS, 5.1, 1510 Kbps | Оригинал | ENG |
скриншот  
скриншот   скриншот   скриншот   скриншот   скриншот  

General
Unique ID : 253038466204911352141214566758599889328 (0xBE5D6F9819292A0ECB681937200811B0)
Complete name : G:VideoSSDFriday.the.13th.2009.BDRip.1080p.ExKinoRay.mkv
Format : Matroska
Format version : Version 4 / Version 2
File size : 8.24 GiB
Duration : 1 h 37 min
Overall bit rate : 12.1 Mb/s
Movie name : Friday the 13th 2009 from ExKinoRay
Encoded date : UTC 2018-01-26 03:20:39
Writing application : mkvmerge v20.0.0 ('I Am The Sun') 64-bit
Writing library : libebml v1.3.5 + libmatroska v1.4.8

Video
ID : 1
Format : AVC
Format/Info : Advanced Video Codec
Format profile : [email protected]
Format settings : CABAC / 5 Ref Frames
Format settings, CABAC : Yes
Format settings, ReFrames : 5 frames
Codec ID : V_MPEG4/ISO/AVC
Duration : 1 h 37 min
Bit rate : 10 000 kb/s
Width : 1 920 pixels
Height : 800 pixels
Display aspect ratio : 2.40:1
Frame rate mode : Constant
Frame rate : 23.976 (24000/1001) FPS
Color space : YUV
Chroma subsampling : 4:2:0
Bit depth : 8 bits
Scan type : Progressive
Bits/(Pixel*Frame) : 0.272
Stream size : 6.78 GiB (82%)
Writing library : x264 core 148 r2705 3f5ed56
Encoding settings : cabac=1 / ref=5 / deblock=1:-3:-3 / analyse=0x3:0x133 / me=umh / subme=11 / psy=1 / psy_rd=1.05:0.05 / mixed_ref=1 / me_range=32 / chroma_me=1 / trellis=2 / 8x8dct=1 / cqm=0 / deadzone=21,11 / fast_pskip=0 / chroma_qp_offset=-3 / threads=24 / lookahead_threads=4 / sliced_threads=0 / nr=0 / decimate=0 / interlaced=0 / bluray_compat=0 / constrained_intra=0 / bframes=8 / b_pyramid=2 / b_adapt=2 / b_bias=0 / direct=3 / weightb=1 / open_gop=0 / weightp=2 / keyint=240 / keyint_min=23 / scenecut=40 / intra_refresh=0 / rc_lookahead=50 / rc=2pass / mbtree=0 / bitrate=10000 / ratetol=1.0 / qcomp=0.60 / qpmin=0 / qpmax=69 / qpstep=4 / cplxblur=20.0 / qblur=0.5 / vbv_maxrate=50000 / vbv_bufsize=62500 / nal_hrd=none / filler=0 / ip_ratio=1.40 / pb_ratio=1.30 / aq=3:0.80
Language : English
Default : Yes
Forced : No

Audio #1
ID : 2
Format : AC-3
Format/Info : Audio Coding 3
Codec ID : A_AC3
Duration : 1 h 37 min
Bit rate mode : Constant
Bit rate : 640 kb/s
Channel(s) : 6 channels
Channel positions : Front: L C R, Side: L R, LFE
Sampling rate : 48.0 kHz
Frame rate : 31.250 FPS (1536 SPF)
Bit depth : 16 bits
Compression mode : Lossy
Stream size : 445 MiB (5%)
Title : Дубляж [License]
Language : Russian
Service kind : Complete Main
Default : Yes
Forced : No

Audio #2
ID : 3
Format : DTS
Format/Info : Digital Theater Systems
Codec ID : A_DTS
Duration : 1 h 37 min
Bit rate mode : Constant
Bit rate : 1 510 kb/s
Channel(s) : 6 channels
Channel positions : Front: L C R, Side: L R, LFE
Sampling rate : 48.0 kHz
Frame rate : 93.750 FPS (512 SPF)
Bit depth : 24 bits
Compression mode : Lossy
Stream size : 1.02 GiB (12%)
Title : Original
Language : English
Default : No
Forced : No

Text #1
ID : 4
Format : UTF-8
Codec ID : S_TEXT/UTF8
Codec ID/Info : UTF-8 Plain Text
Duration : 1 h 36 min
Bit rate : 62 b/s
Count of elements : 876
Stream size : 44.3 KiB (0%)
Title : Full
Language : Russian
Default : No
Forced : No

Text #2
ID : 5
Format : UTF-8
Codec ID : S_TEXT/UTF8
Codec ID/Info : UTF-8 Plain Text
Duration : 1 h 28 min
Bit rate : 42 b/s
Count of elements : 867
Stream size : 27.5 KiB (0%)
Title : Full
Language : English
Default : No
Forced : No

Menu
00:00:00.000 : :Chapter 1
00:03:25.205 : :Chapter 2
00:08:10.615 : :Chapter 3
00:12:01.387 : :Chapter 4
00:15:12.745 : :Chapter 5
00:19:16.238 : :Chapter 6
00:23:15.727 : :Chapter 7
00:28:08.228 : :Chapter 8
00:31:59.459 : :Chapter 9
00:36:36.986 : :Chapter 10
00:38:56.292 : :Chapter 11
00:42:46.230 : :Chapter 12
00:48:00.627 : :Chapter 13
00:52:18.468 : :Chapter 14
00:56:33.515 : :Chapter 15
01:00:21.576 : :Chapter 16
01:03:09.452 : :Chapter 17
01:05:30.343 : :Chapter 18
01:09:49.351 : :Chapter 19
01:13:26.735 : :Chapter 20
01:16:17.781 : :Chapter 21
01:18:20.153 : :Chapter 22
01:22:23.605 : :Chapter 23
01:26:05.827 : :Chapter 24
01:30:17.161 : :Chapter 25




Скачать Пятница 13-е через торрент http://img12.lostpic.net/2018/01/26/34c0e39240fe1dcedb281b33ccc52a9f.jpg Скачать, смотреть онлайн Пятница 13-е бесплантно в хорошем качестве Описание: Молодые друзья Уитни, Майк, Ричи, Аманда и Уэйд заблудились в лесах около заброшенного лагеря «Хрустальное озеро». Когда их ... 9 10 9
Info! Золотая раздача, скачанное не засчитывается.
Торрент: Зарегистрирован [2018-01-26 05:28] · скачан: 202 раз
Статус: √ проверено
Размер: 8.24 GB
Как cкачать? Как скачать Пятница 13-е через торрент | UTorrent

% Раздел Тема Автор DL S | L
Фильмы [HD 720p, 1080p] (Хороший звук DUB, MVO) [ 9.07 GB ] Пятница, 13-е | DUB | 1080p Леонид Ильич Скачать
1 | 0
Фильмы 2009 [ 2.19 GB ] Пятница 13-е / Friday the 13th | Дубляж BD CEE | HDRip-AVC, Дубляж BD CEE winchester00100010 Скачать
1 | 0
Фильмы 2009 [ 1.75 GB ] Пятница 13-е / Friday the 13th | Дубляж BD CEE + Двухголосый | BDRip-AVC, Дубляж BD CEE + Двухголосый winchester00100010 Скачать
1 | 0
Фильмы 2009 [ 1.2 GB ] Пятница 13-е / Friday the 13th | Дубляж BD CEE | BDRip-AVC, Дубляж BD CEE winchester00100010 Скачать
1 | 0
Фильмы 2009 [ 1.37 GB ] Пятница 13-е / Friday the 13th | DUB | DVDRip, DUB Jack_orsk Скачать
1 | 0
Фильмы 2009 [ 1.46 GB ] Пятница 13-е | | BDRip Leshka37 Скачать
1 | 0
Фильмы 2009 [ 761 MB ] Пятница 13-е / Friday the 13th | | HDRip Venxxx Скачать
1 | 0

28-11-2019 20:33  


Отключить вcю реклaмy на сайте, в т.ч. и в плеере онлайн просмотра!

26-01-2018 16:38 Пятница 13-е Скачать торрент  

bober100, Спасибо!



    Дорогой пользователь! Огромная просьба, поблагодарите релизера, оцените раздачу и оставьте свои комментарий, если Вы скачали Пятница 13-е через торрент бесплатно!!
    Комментировать посты могут только пользователи прошедшие не сложную регистрацию
    Показать сообщения:    


    Пятница 13-е через торрент
    Скачать бесплатно Пятница 13-е
    Пятница 13-е скачать торрент
    Пятница 13-е смотреть онлайн
    Cкачать фильм Пятница 13-е бесплатно
    Пятница 13-е скачать торрент в хорошем качестве
    Пятница 13-е смотреть онлайн бесплатно в хорошем качестве
    Вы не можете начинать темы
    Вы не можете отвечать на сообщения
    Вы не можете редактировать свои сообщения
    Вы не можете удалять свои сообщения
    Вы не можете голосовать в опросах
    Вы не можете прикреплять файлы к сообщениям
    Вы можете скачивать файлы
    Пятница 13-е / Friday the 13th [2009, Ужасы, ремейк, слэшер, BDRip 1080p] Дубляж [Театральная версия] [Лицензия] смотреть онлайн, скачать торрент picoco.icu