Ссылка на приватное зеркало нашего сайта всего за 1$. Внимание количество ограничено!!!

2 сезон

iTunes

1 сезон

1

iTunes

iTunes

iTunes

1 сезон

RePack

30

ИГРА 18+

pack

ВАЖНО

!!Акция!!

Alien_RageХит недели

RePack

MK11
pack

Забери бонус

RePack

jed

!!Акция!!

Alien_Rage

RePack

fifa19

RePack

Assassins Creed: Odyssey

RePack

NEED FOR SPEED™ PAYBACK

4 сезон

9 сезон

Бесстыжие 9 сезон

Все сериалы

все сериалы на PB.wtf

RePack

FAR CRY 5
  

Мотылёк / Papillon (Франклин Дж. Шаффнер) [1973, драма, криминал, биография, BDRip 720p by msltel] 2 x MVO, DVO, 3 x AVO pb.wtf

Мотылёк через торрент pb.wtf

Размер: 7.9 GB | Добавлен: 2 года 9 мес. назад | Торрент скачан:79 раз
Скачать  

26-01-2018 07:29 Мотылёк Скачать торрент  

Название: Мотылёк
Оригинальное название: Papillon
Год выпуска: 1973
Страна: США, Франция
Жанр: драма, криминал, биография
Продолжительность: 02:30:47
Перевод: профессиональный многоголосый, профессиональный двухголосый, авторский

Режиссер: Франклин Дж. Шаффнер
В ролях: Стив МакКуин (I), Дастин Хоффман, Виктор Джори, Дон Гордон, Энтони Зербе, Роберт Димен, Вудроу Парфри, Билл Мьюми, Джордж Кулурис, Рэтна Ассан, Уильям Смитерс, Вэл Эйвери, Грегори Сьерра, Вик Тейбэк, Миллс Уотсон, Рон Собл, Барбара Моррисон, Дон Ханмер, Э.Дж. Андре, Ричард Ангарола, Джек Денбо

О фильме: За убийство, которого не совершал, взломщик сейфов Анри Шарьер приговорён к пожизненному заключению и отправлен на каторгу. Прозванный «Мотыльком» за то, что на его груди вытатуирован этот символ свободы, Анри совершает несколько попыток побега. В наказание власти отправляют его во Французскую Гвиану на остров Дьявола, со всех сторон окружённый океаном, и надолго сажают в карцер. Из этой самой страшной каторжной тюрьмы не удавалось бежать ни одному заключённому. Но ничто не может заставить Анри пасть духом и сломить его решимость вырваться на волю... Фильм снят по мотивам романа Анри Шарьера «Мотылёк» (Papillon, 1969).



Качество: BDRip 720p
Формат: MKV
Видео: MPEG-4 AVC, 5128 Kбит/с, 1280x534
Аудио 1: русский, AC3, 192 kbps, 2 ch, 48 kHz [закадровый многоголосый, OPT]
Аудио 2: русский, AC3, 192 kbps, 2 ch, 48 kHz [закадровый многоголосый, DVD Magic]
Аудио 3: русский, AC3, 448 kbps, 6 ch, 48 kHz [закадровый двухголосый, Пётр Гланц и Инна Королёва]
Аудио 4: русский, AC3, 448 kbps, 6 ch, 48 kHz [авторский, Андрей Гаврилов]
Аудио 5: русский, AC3, 448 kbps, 6 ch, 48 kHz [авторский, Михаил Иванов]
Аудио 6: русский, AC3, 192 kbps, 2 ch, 48 kHz [авторский, Юрий Товбин]
Аудио 7: английский, AC3, 448 kbps, 6 ch, 48 kHz [оригинал]
Субтитры 1: русские
Субтитры 2: английские
Неименованные главы/чаптеры.
Общее
Уникальный идентификатор : 170787817585636151612141112130016321285 (0x807C898619E9439298278C6CEE8F1F05)
Полное имя : D:\Video\Мотылёк.1973.BDRip.720p by msltel.mkv
Формат : Matroska
Версия формата : Version 4 / Version 2
Размер файла : 7,90 Гбайт
Продолжительность : 2 ч. 30 м.
Общий поток : 7499 Кбит/сек
Название фильма : Rip by msltel
Дата кодирования : UTC 2018-01-25 12:26:19
Программа кодирования : mkvmerge v8.2.0 ('World of Adventure') 64bit
Библиотека кодирования : libebml v1.3.1 + libmatroska v1.4.2

Видео
Идентификатор : 1
Формат : AVC
Формат/Информация : Advanced Video Codec
Профиль формата : High@L4.1
Настройки формата : CABAC / 9 Ref Frames
Параметр CABAC формата : Да
Параметр RefFrames формата : 9 кадров
Идентификатор кодека : V_MPEG4/ISO/AVC
Продолжительность : 2 ч. 30 м.
Битрейт : 5128 Кбит/сек
Ширина : 1280 пикселей
Высота : 534 пикселя
Соотношение сторон : 2,40:1
Режим частоты кадров : Постоянный
Частота кадров : 23,976 (24000/1001) кадра/сек
Цветовое пространство : YUV
Субдискретизация насыщенности : 4:2:0
Битовая глубина : 8 бит
Тип развёртки : Прогрессивная
Бит/(Пиксели*Кадры) : 0.313
Размер потока : 5,40 Гбайт (68%)
Библиотека кодирования : x264 core 146 r2538 121396c
Настройки программы : cabac=1 / ref=9 / deblock=1:-3:-2 / analyse=0x3:0x113 / me=umh / subme=11 / psy=1 / psy_rd=1.00:0.15 / mixed_ref=1 / me_range=32 / chroma_me=1 / trellis=2 / 8x8dct=1 / cqm=0 / deadzone=21,11 / fast_pskip=0 / chroma_qp_offset=-3 / threads=6 / lookahead_threads=1 / sliced_threads=0 / nr=0 / decimate=1 / interlaced=0 / bluray_compat=0 / constrained_intra=0 / bframes=8 / b_pyramid=2 / b_adapt=2 / b_bias=0 / direct=1 / weightb=1 / open_gop=0 / weightp=2 / keyint=230 / keyint_min=23 / scenecut=40 / intra_refresh=0 / rc_lookahead=40 / rc=crf / mbtree=0 / crf=18.1 / qcomp=0.60 / qpmin=0 / qpmax=69 / qpstep=4 / vbv_maxrate=62500 / vbv_bufsize=78125 / crf_max=0.0 / nal_hrd=none / filler=0 / ip_ratio=1.40 / pb_ratio=1.30 / aq=1:1.00
Язык : English
Default : Да
Forced : Нет

Аудио #1
Идентификатор : 2
Формат : AC-3
Формат/Информация : Audio Coding 3
Идентификатор кодека : A_AC3
Продолжительность : 2 ч. 30 м.
Вид битрейта : Постоянный
Битрейт : 192 Кбит/сек
Каналы : 2 канала
Расположение каналов : Front: L R
Частота : 48,0 КГц
Частота кадров : 31,250 кадров/сек (1536 SPF)
Битовая глубина : 16 бит
Метод сжатия : С потерями
Размер потока : 207 Мбайт (3%)
Заголовок : MVO.OPT
Язык : Russian
ServiceKind/String : Complete Main
Default : Да
Forced : Нет

Аудио #2
Идентификатор : 3
Формат : AC-3
Формат/Информация : Audio Coding 3
Идентификатор кодека : A_AC3
Продолжительность : 2 ч. 30 м.
Вид битрейта : Постоянный
Битрейт : 192 Кбит/сек
Каналы : 2 канала
Расположение каналов : Front: L R
Частота : 48,0 КГц
Частота кадров : 31,250 кадров/сек (1536 SPF)
Битовая глубина : 16 бит
Метод сжатия : С потерями
Размер потока : 207 Мбайт (3%)
Заголовок : MVO.DVD Magic
Язык : Russian
ServiceKind/String : Complete Main
Default : Нет
Forced : Нет

Аудио #3
Идентификатор : 4
Формат : AC-3
Формат/Информация : Audio Coding 3
Идентификатор кодека : A_AC3
Продолжительность : 2 ч. 30 м.
Вид битрейта : Постоянный
Битрейт : 448 Кбит/сек
Каналы : 6 каналов
Расположение каналов : Front: L C R, Side: L R, LFE
Частота : 48,0 КГц
Частота кадров : 31,250 кадров/сек (1536 SPF)
Битовая глубина : 16 бит
Метод сжатия : С потерями
Размер потока : 483 Мбайт (6%)
Заголовок : Пётр Гланц и Инна Королёва
Язык : Russian
ServiceKind/String : Complete Main
Default : Нет
Forced : Нет

Аудио #4
Идентификатор : 5
Формат : AC-3
Формат/Информация : Audio Coding 3
Идентификатор кодека : A_AC3
Продолжительность : 2 ч. 30 м.
Вид битрейта : Постоянный
Битрейт : 448 Кбит/сек
Каналы : 6 каналов
Расположение каналов : Front: L C R, Side: L R, LFE
Частота : 48,0 КГц
Частота кадров : 31,250 кадров/сек (1536 SPF)
Битовая глубина : 16 бит
Метод сжатия : С потерями
Размер потока : 483 Мбайт (6%)
Заголовок : Андрей Гаврилов
Язык : Russian
ServiceKind/String : Complete Main
Default : Нет
Forced : Нет

Аудио #5
Идентификатор : 6
Формат : AC-3
Формат/Информация : Audio Coding 3
Идентификатор кодека : A_AC3
Продолжительность : 2 ч. 30 м.
Вид битрейта : Постоянный
Битрейт : 448 Кбит/сек
Каналы : 6 каналов
Расположение каналов : Front: L C R, Side: L R, LFE
Частота : 48,0 КГц
Частота кадров : 31,250 кадров/сек (1536 SPF)
Битовая глубина : 16 бит
Метод сжатия : С потерями
Размер потока : 483 Мбайт (6%)
Заголовок : Михаил Иванов
Язык : Russian
ServiceKind/String : Complete Main
Default : Нет
Forced : Нет

Аудио #6
Идентификатор : 7
Формат : AC-3
Формат/Информация : Audio Coding 3
Идентификатор кодека : A_AC3
Продолжительность : 2 ч. 30 м.
Вид битрейта : Постоянный
Битрейт : 192 Кбит/сек
Каналы : 2 канала
Расположение каналов : Front: L R
Частота : 48,0 КГц
Частота кадров : 31,250 кадров/сек (1536 SPF)
Битовая глубина : 16 бит
Метод сжатия : С потерями
Размер потока : 207 Мбайт (3%)
Заголовок : Юрий Товбин
Язык : Russian
ServiceKind/String : Complete Main
Default : Нет
Forced : Нет

Аудио #7
Идентификатор : 8
Формат : AC-3
Формат/Информация : Audio Coding 3
Идентификатор кодека : A_AC3
Продолжительность : 2 ч. 30 м.
Вид битрейта : Постоянный
Битрейт : 448 Кбит/сек
Каналы : 6 каналов
Расположение каналов : Front: L C R, Side: L R, LFE
Частота : 48,0 КГц
Частота кадров : 31,250 кадров/сек (1536 SPF)
Битовая глубина : 16 бит
Метод сжатия : С потерями
Размер потока : 483 Мбайт (6%)
Заголовок : original
Язык : English
ServiceKind/String : Complete Main
Default : Нет
Forced : Нет

Текст #1
Идентификатор : 9
Формат : UTF-8
Идентификатор кодека : S_TEXT/UTF8
Идентификатор кодека/Информация : UTF-8 Plain Text
Продолжительность : 2 ч. 26 м.
Битрейт : 2 бит/сек
ElementCount : 83
Размер потока : 2,34 Кбайт (0%)
Заголовок : русские (на места без перевода)
Язык : Russian
Default : Да
Forced : Да

Текст #2
Идентификатор : 10
Формат : UTF-8
Идентификатор кодека : S_TEXT/UTF8
Идентификатор кодека/Информация : UTF-8 Plain Text
Продолжительность : 2 ч. 10 м.
Битрейт : 50 бит/сек
ElementCount : 883
Размер потока : 48,4 Кбайт (0%)
Заголовок : русские
Язык : Russian
Default : Нет
Forced : Нет

Текст #3
Идентификатор : 11
Формат : UTF-8
Идентификатор кодека : S_TEXT/UTF8
Идентификатор кодека/Информация : UTF-8 Plain Text
Продолжительность : 2 ч. 30 м.
Битрейт : 27 бит/сек
ElementCount : 995
Размер потока : 30,4 Кбайт (0%)
Заголовок : английские
Язык : English
Default : Нет
Forced : Нет

Меню
00:00:00.000 : :Chapter 01
00:03:58.321 : :Chapter 02
00:08:21.083 : :Chapter 03
00:10:31.380 : :Chapter 04
00:15:24.006 : :Chapter 05
00:16:58.642 : :Chapter 06
00:22:14.541 : :Chapter 07
00:25:40.413 : :Chapter 08
00:30:16.815 : :Chapter 09
00:35:01.933 : :Chapter 10
00:40:35.850 : :Chapter 11
00:43:53.005 : :Chapter 12
00:45:50.456 : :Chapter 13
00:51:21.953 : :Chapter 14
00:56:38.561 : :Chapter 15
00:58:26.377 : :Chapter 16
01:07:21.954 : :Chapter 17
01:09:26.662 : :Chapter 18
01:12:26.759 : :Chapter 19
01:17:45.911 : :Chapter 20
01:21:02.691 : :Chapter 21
01:24:08.334 : :Chapter 22
01:26:05.535 : :Chapter 23
01:32:59.991 : :Chapter 24
01:35:57.417 : :Chapter 25
01:37:55.953 : :Chapter 26
01:42:36.358 : :Chapter 27
01:44:18.627 : :Chapter 28
01:47:37.200 : :Chapter 29
01:51:02.238 : :Chapter 30
01:54:34.742 : :Chapter 31
02:02:55.910 : :Chapter 32
02:07:06.827 : :Chapter 33
02:10:31.990 : :Chapter 34
02:14:08.623 : :Chapter 35
02:16:37.147 : :Chapter 36
02:20:06.522 : :Chapter 37
02:24:07.472 : :Chapter 38
02:27:12.990 : :Chapter 39
02:30:46.829 : :Chapter 40
pb.wtf



Скачать Мотылёк через торрент https://a.radikal.ru/a42/1801/5d/635fb8f780c9.jpg Скачать фильм Мотылёк через торрент бесплантно в хорошем качестве О фильме: За убийство, которого не совершал, взломщик сейфов Анри Шарьер приговорён к пожизненному заключению и отправлен на каторгу. ... 8.7 10 7
Info! Золотая раздача, скачанное не засчитывается.
Торрент: Зарегистрирован [2018-01-26 07:29] · скачан: 79 раз
Статус: √ проверено
Размер: 7.9 GB
Как cкачать? Как скачать Мотылёк через торрент | qTorrent

% Раздел Тема Автор DL S | L
Фильмы [HD 720p, 1080p] (Хороший звук DUB, MVO) [ 21 GB ] Мотылёк / Papillon [1973 биография BDRip 1080p by msltel] 2 x MVO DVO 3 x AVO msltel Скачать
1 | 0

28-11-2019 20:33  

Отключить всю рекламу на сайте

26-01-2018 08:32 Мотылёк Скачать торрент  

msltel, Спасибо!pb.wtf



28-01-2018 13:24 Мотылёк Скачать торрент  

ого,книгу читал ,не ожидал что сняли фильм . хыыpb.wtf



    Дорогой пользователь! Огромная просьба, поблагодарите релизера, оцените раздачу и оставьте свои комментарий, если Вы скачали Мотылёк через торрент бесплатно! Внесите свою лепту в развитие PiratBit!
    Комментировать посты могут только пользователи прошедшие не сложную регистрацию
    Показать сообщения:    

    Мотылёк через торрент
    Скачать бесплатно Мотылёк
    Мотылёк скачать торрент
    Мотылёк смотреть онлайн
    Cкачать фильм Мотылёк бесплатно
    Мотылёк скачать торрент в хорошем качестве
    Мотылёк смотреть онлайн бесплатно в хорошем качестве


    Вы не можете начинать темы
    Вы не можете отвечать на сообщения
    Вы не можете редактировать свои сообщения
    Вы не можете удалять свои сообщения
    Вы не можете голосовать в опросах
    Вы не можете прикреплять файлы к сообщениям
    Вы можете скачивать файлы