>

7.4

iTunes

7.4

2 сезон

9.4

1 сезон

1

7.4

2 сезон

7.2

iTunes

6.0

MVO

13

6.1

iTunes

8.3

Пиратка

30

ULTIMATE

pack

9.9

Лицензия

ВАЖНО

ИГРА 18+

pack

7.3

RePack

MK11

7.7

RePack

jed

7.8

RePack

fifa19

8.5

RePack

RDR2

RePack

NEED FOR SPEED™ PAYBACK

1 сезон

9 сезон

Бесстыжие 9 сезон

Все сериалы

все сериалы на PB.wtf

RePack

FAR CRY 5

Anonymous, доброе утро, мы катастрофически не успеваем собрать деньги на оплату серверов, помогите нам пожалуйста 5,10,15р., для нас важна любая помощь . В качестве благодарности мы отключим Вам всю рекламу на сайте (укажите свой ник в строку Ваше имя)!

×
  
Magnet ссылка

Мишень / Target (Артур Пенн) [1985, боевик, триллер, драма, криминал, детектив, приключения, BDRip 1080p by msltel] AVO pb.wtf

Мишень через торрент pb.wtf

Размер: 15.12 GB | Добавлен: 3 года 11 мес. назад | Торрент скачан:8 раз
Смотреть онлайн Мишень | Скачать    Ребята, помогите собрать деньги на оплату серверов!!!

26-01-2018 09:30 Мишень Скачать торрент  

Название: Мишень
Оригинальное название: Target
Год выпуска: 1985
Страна: США
Жанр: боевик, триллер, драма, криминал, детектив, приключения
Продолжительность: 01:52:20
Перевод: авторский

Режиссер: Артур Пенн
В ролях: Джин Хэкмен, Мэтт Диллон, Гэйл Ханникат, Рэнди Мур, Виктория Фёдорова, Йозеф Зоммер, Гай Бойд, Херберт Бергхоф, Илона Грюбель, Джеймс Селби

О фильме: Уолтер Ллойд, владелец небольшого лесного участка, скромно живёт с семьёй в Далласе, штат Техас. Он заботливый и внимательный отец, но его сыну Крису скучно жить по стандартам отца. Бросив колледж, он решает участвовать в автомобильных гонках. Однако все проблемы меркнут, когда приходит тревожное известие из Европы. В Париже похищают жену Уолтера Данну, отправившуюся в путешествие. Отец с сыном вылетают в Париж, чтобы на месте разобраться в ситуации. Именно там Крис переживает настоящее потрясение, увидев отца в совершенно новом свете, и с изумлением узнаёт, что тот — бывший секретный агент ЦРУ...



Качество: BDRip 1080p
Формат: MKV
Видео: MPEG-4 AVC, 16.2 Mбит/с, 1872х1072, 25.000 кадр/с
Аудио 1: русский, DTS, 1509 kbps, 2 ch [авторский, Алексей Михалёв]
Аудио 2: английский, DTS, 1509 kbps, 2 ch, 48 kHz [оригинал]
Субтитры: английские
Неименованные главы/чаптеры.
Общее
Уникальный идентификатор : 233829063125936087135019104696795758479 (0xAFE9D6E678DC63839EF84AC478297F8F)
Полное имя : D:\Video\Мишень.1985.BDRip.1080p by msltel.mkv
Формат : Matroska
Версия формата : Version 4 / Version 2
Размер файла : 15,1 Гбайт
Продолжительность : 1 ч. 52 м.
Общий поток : 19,3 Мбит/сек
Название фильма : Rip by msltel
Дата кодирования : UTC 2018-01-26 06:03:09
Программа кодирования : mkvmerge v8.2.0 ('World of Adventure') 64bit
Библиотека кодирования : libebml v1.3.1 + libmatroska v1.4.2

Видео
Идентификатор : 1
Формат : AVC
Формат/Информация : Advanced Video Codec
Профиль формата : High@L4.1
Настройки формата : CABAC / 4 Ref Frames
Параметр CABAC формата : Да
Параметр RefFrames формата : 4 кадра
Идентификатор кодека : V_MPEG4/ISO/AVC
Продолжительность : 1 ч. 52 м.
Битрейт : 16,2 Мбит/сек
Ширина : 1872 пикселя
Высота : 1072 пикселя
Соотношение сторон : 16:9
Режим частоты кадров : Постоянный
Частота кадров : 25,000 кадров/сек
Цветовое пространство : YUV
Субдискретизация насыщенности : 4:2:0
Битовая глубина : 8 бит
Тип развёртки : Прогрессивная
Бит/(Пиксели*Кадры) : 0.324
Размер потока : 12,7 Гбайт (84%)
Библиотека кодирования : x264 core 146 r2538 121396c
Настройки программы : cabac=1 / ref=4 / deblock=1:-3:-2 / analyse=0x3:0x113 / me=umh / subme=11 / psy=1 / psy_rd=1.00:0.15 / mixed_ref=1 / me_range=32 / chroma_me=1 / trellis=2 / 8x8dct=1 / cqm=0 / deadzone=21,11 / fast_pskip=0 / chroma_qp_offset=-3 / threads=6 / lookahead_threads=1 / sliced_threads=0 / nr=0 / decimate=1 / interlaced=0 / bluray_compat=0 / constrained_intra=0 / bframes=9 / b_pyramid=2 / b_adapt=2 / b_bias=0 / direct=1 / weightb=1 / open_gop=0 / weightp=2 / keyint=240 / keyint_min=24 / scenecut=40 / intra_refresh=0 / rc_lookahead=40 / rc=crf / mbtree=0 / crf=18.6 / qcomp=0.60 / qpmin=0 / qpmax=69 / qpstep=4 / vbv_maxrate=62500 / vbv_bufsize=78125 / crf_max=0.0 / nal_hrd=none / filler=0 / ip_ratio=1.40 / pb_ratio=1.30 / aq=1:1.00
Язык : English
Default : Да
Forced : Нет

Аудио #1
Идентификатор : 2
Формат : DTS
Формат/Информация : Digital Theater Systems
Идентификатор кодека : A_DTS
Продолжительность : 1 ч. 52 м.
Вид битрейта : Постоянный
Битрейт : 1509 Кбит/сек
Каналы : 2 канала
Расположение каналов : Front: L R
Частота : 48,0 КГц
Частота кадров : 93,750 кадра/сек (512 SPF)
Битовая глубина : 24 бит
Метод сжатия : С потерями
Размер потока : 1,18 Гбайт (8%)
Заголовок : Алексей Михалёв
Язык : Russian
Default : Да
Forced : Нет

Аудио #2
Идентификатор : 3
Формат : DTS
Формат/Информация : Digital Theater Systems
Идентификатор кодека : A_DTS
Продолжительность : 1 ч. 52 м.
Вид битрейта : Постоянный
Битрейт : 1509 Кбит/сек
Каналы : 2 канала
Расположение каналов : Front: L R
Частота : 48,0 КГц
Частота кадров : 93,750 кадра/сек (512 SPF)
Битовая глубина : 24 бит
Метод сжатия : С потерями
Размер потока : 1,18 Гбайт (8%)
Заголовок : original
Язык : English
Default : Нет
Forced : Нет

Текст
Идентификатор : 4
Формат : UTF-8
Идентификатор кодека : S_TEXT/UTF8
Идентификатор кодека/Информация : UTF-8 Plain Text
Продолжительность : 1 ч. 48 м.
Битрейт : 50 бит/сек
ElementCount : 1161
Размер потока : 40,3 Кбайт (0%)
Заголовок : английские
Язык : English
Default : Нет
Forced : Нет
pb.wtf



Скачать Мишень через торрент https://c.radikal.ru/c28/1801/d8/08105f0f1c3d.jpg Скачать, смотреть онлайн Мишень бесплантно в хорошем качестве О фильме: Уолтер Ллойд, владелец небольшого лесного участка, скромно живёт с семьёй в Далласе, штат Техас. Он заботливый и внимательный ... 10 10 1
Info! Золотая раздача, скачанное не засчитывается.
Торрент: Зарегистрирован [2018-01-26 09:30] · скачан: 8 раз
Статус: √ проверено
Размер: 15.12 GB
Как cкачать? Как скачать Мишень через торрент | UTorrent

% Раздел Тема Автор DL S | L
Фильмы [HD 720p, 1080p] (Звук Cam, VO, DVO) [ 5.04 GB ] Мишень / Target [1985 BDRip 720p by msltel] AVO msltel Скачать
1 | 0

28-11-2019 20:33  

Отключить всю рекламу на сайте

    Дорогой пользователь! Огромная просьба, поблагодарите релизера, оцените раздачу и оставьте свои комментарий, если Вы скачали Мишень через торрент бесплатно!
    Комментировать посты могут только пользователи прошедшие не сложную регистрацию
    Показать сообщения:    

    Мишень через торрент
    Скачать бесплатно Мишень
    Мишень скачать торрент
    Мишень смотреть онлайн
    Cкачать фильм Мишень бесплатно
    Мишень скачать торрент в хорошем качестве
    Мишень смотреть онлайн бесплатно в хорошем качестве


    Вы не можете начинать темы
    Вы не можете отвечать на сообщения
    Вы не можете редактировать свои сообщения
    Вы не можете удалять свои сообщения
    Вы не можете голосовать в опросах
    Вы не можете прикреплять файлы к сообщениям
    Вы можете скачивать файлы