Ссылка на приватное зеркало нашего сайта всего за 1$. Внимание количество ограничено!!!

2 сезон

iTunes

1 сезон

1

iTunes

iTunes

iTunes

1 сезон

RePack

30

ИГРА 18+

pack

ВАЖНО

!!Акция!!

Alien_RageХит недели

RePack

MK11
pack

Забери бонус

RePack

jed

!!Акция!!

Alien_Rage

RePack

fifa19

RePack

Assassins Creed: Odyssey

RePack

NEED FOR SPEED™ PAYBACK

4 сезон

9 сезон

Бесстыжие 9 сезон

Все сериалы

все сериалы на PB.wtf

RePack

FAR CRY 5
  

24 часа на жизнь / 24 Hours to Live (Брайан Смрз) [2017, боевик, триллер, фэнтези, BDRip 1080p] DUB [iTunes] pb.wtf

24 часа на жизнь через торрент pb.wtf

Размер: 8.68 GB | Добавлен: 2 года 9 мес. назад | Торрент скачан:510 раз
Скачать  

26-01-2018 11:08 24 часа на жизнь Скачать торрент  

24 часа на жизнь / 24 Hours to LiveГод выпуска: 2017
Страна: ЮАР, Гонконг
Жанр: боевик, триллер, фэнтези
Продолжительность: 01:33:36
Перевод:Дублированный | iTunes
Субтитры: Английские

Режиссер: Брайан Смрз

rating

В ролях:

Рутгер Хауэр, Итан Хоук, Пол Андерсон, Лиам Каннингэм, Натали Болтт, Таня ван Граан, Хаким Кае-Казим, Сюй Цин, Эйдан Уайток, Эндрю Моргадо

Описание:

Во время очередного задания погибает киллер, на совести которого много невинных жертв. Но таинственным образом он возвращается из потустороннего мира к жизни. И теперь у него есть только 24 часа, чтобы объединившись с убийцей, от руки которого он принял смерть, искупить вину и спасти свою душу.

Качество: BDRip 1080p
Формат: MKV

Видео: MPEG-4 AVC, 1920x800, 11.4 Mbit/s, 23.976 fps
Аудио#1: 48 kHz, AC3, 5.1, 384 Kbps | Дублированный | iTunes | RUS |
Аудио#2: 48 kHz, DTS, 5.1, 1510 Kbps | Оригинал | ENG |


Релиз от:
скриншот   скриншот   скриншот   скриншот   скриншот  

General
Unique ID : 86862155825079562404549852274421140699 (0x41590AEDFA59DA7B9E03D11EF3E00CDB)
Complete name : G:VideoSSD24.Hours.to.Live.2017.BDRip.1080p.ExKinoRay.mkv
Format : Matroska
Format version : Version 4 / Version 2
File size : 8.68 GiB
Duration : 1 h 33 min
Overall bit rate : 13.3 Mb/s
Movie name : 24 Hours to Live 2017 from ExKinoRay
Encoded date : UTC 2018-01-26 09:24:01
Writing application : mkvmerge v20.0.0 ('I Am The Sun') 64-bit
Writing library : libebml v1.3.5 + libmatroska v1.4.8

Video
ID : 1
Format : AVC
Format/Info : Advanced Video Codec
Format profile : High@L4.1
Format settings : CABAC / 5 Ref Frames
Format settings, CABAC : Yes
Format settings, ReFrames : 5 frames
Codec ID : V_MPEG4/ISO/AVC
Duration : 1 h 33 min
Bit rate : 11.4 Mb/s
Width : 1 920 pixels
Height : 800 pixels
Display aspect ratio : 2.40:1
Frame rate mode : Constant
Frame rate : 23.976 (24000/1001) FPS
Color space : YUV
Chroma subsampling : 4:2:0
Bit depth : 8 bits
Scan type : Progressive
Bits/(Pixel*Frame) : 0.309
Stream size : 7.44 GiB (86%)
Writing library : x264 core 152 r2851kMod ba24899
Encoding settings : cabac=1 / ref=5 / deblock=1:-3:-3 / analyse=0x3:0x133 / me=umh / subme=10 / psy=1 / fade_compensate=0.00 / psy_rd=1.00:0.00 / mixed_ref=1 / me_range=32 / chroma_me=1 / trellis=2 / 8x8dct=1 / cqm=0 / deadzone=21,11 / fast_pskip=0 / chroma_qp_offset=-2 / threads=24 / lookahead_threads=4 / sliced_threads=0 / nr=0 / decimate=1 / interlaced=0 / bluray_compat=0 / constrained_intra=0 / bframes=8 / b_pyramid=2 / b_adapt=2 / b_bias=0 / direct=1 / weightb=1 / open_gop=0 / weightp=2 / keyint=240 / keyint_min=23 / scenecut=40 / intra_refresh=0 / rc_lookahead=60 / rc=crf / mbtree=0 / crf=16.0000 / qcomp=0.60 / qpmin=0 / qpmax=69 / qpstep=4 / vbv_maxrate=50000 / vbv_bufsize=62500 / crf_max=0.0 / nal_hrd=none / filler=0 / ip_ratio=1.35 / pb_ratio=1.25 / aq=3:0.80
Language : English
Default : Yes
Forced : No

Audio #1
ID : 2
Format : AC-3
Format/Info : Audio Coding 3
Codec ID : A_AC3
Duration : 1 h 33 min
Bit rate mode : Constant
Bit rate : 384 kb/s
Channel(s) : 6 channels
Channel positions : Front: L C R, Side: L R, LFE
Sampling rate : 48.0 kHz
Frame rate : 31.250 FPS (1536 SPF)
Bit depth : 16 bits
Compression mode : Lossy
Stream size : 256 MiB (3%)
Title : iTunes
Language : Russian
Service kind : Complete Main
Default : Yes
Forced : No

Audio #2
ID : 3
Format : DTS
Format/Info : Digital Theater Systems
Codec ID : A_DTS
Duration : 1 h 33 min
Bit rate mode : Constant
Bit rate : 1 509 kb/s
Channel(s) : 6 channels
Channel positions : Front: L C R, Side: L R, LFE
Sampling rate : 48.0 kHz
Frame rate : 93.750 FPS (512 SPF)
Bit depth : 24 bits
Compression mode : Lossy
Stream size : 1 010 MiB (11%)
Title : Original
Language : English
Default : No
Forced : No

Text
ID : 4
Format : UTF-8
Codec ID : S_TEXT/UTF8
Codec ID/Info : UTF-8 Plain Text
Duration : 1 h 26 min
Bit rate : 43 b/s
Count of elements : 815
Stream size : 27.4 KiB (0%)
Title : Full
Language : English
Default : No
Forced : No

Menu
00:00:00.000 : en:00:00:00.000
00:05:41.132 : en:00:05:41.132
00:11:46.080 : en:00:11:46.080
00:17:12.323 : en:00:17:12.323
00:24:41.980 : en:00:24:41.980
00:27:46.665 : en:00:27:46.665
00:36:34.567 : en:00:36:34.567
00:41:25.233 : en:00:41:25.233
00:46:28.202 : en:00:46:28.202
00:52:35.569 : en:00:52:35.569
00:58:56.700 : en:00:58:56.700
01:06:55.470 : en:01:06:55.470
01:11:32.497 : en:01:11:32.497
01:17:02.868 : en:01:17:02.868
01:21:17.456 : en:01:21:17.456
01:27:53.268 : en:01:27:53.268

pb.wtf



Скачать 24 часа на жизнь через торрент http://img12.lostpic.net/2018/01/26/843afb6e2a98fd046cd78ade52f241c1.jpg Скачать фильм 24 часа на жизнь через торрент бесплантно в хорошем качестве Описание: Во время очередного задания погибает киллер, на совести которого много невинных жертв. Но таинственным образом он возвращается из ... 9.4 10 14
Торрент: Зарегистрирован [2018-01-26 11:08] · скачан: 510 раз
Статус: √ проверено
Размер: 8.68 GB
Как cкачать? Как скачать 24 часа на жизнь через торрент | qTorrent

% Раздел Тема Автор DL S | L
Фильмы [HD 720p, 1080p] (Хороший звук DUB, MVO) [ 3.27 GB ] 24 часа на жизнь / 24 Hours to Live [2017 BDRip 720p] [GER Transfer] - KORSAR kisa1980 Скачать
1 | 1
Фильмы [HD 720p, 1080p] (Хороший звук DUB, MVO) [ 9.71 GB ] 24 часа на жизнь / 24 Hours to Live [2017 BDRip 1080p by msltel] 2 x DUB AVO msltel Скачать
1 | 0
Фильмы 2017 [DVDrip, WEB-DLRip, HDrip] (DUB, MVO) [ 2.74 GB ] 24 часа на жизнь / 24 Hours to Live [2017 BDRip by msltel] 2 x DUB AVO msltel Скачать
2 | 0
Фильмы [HD 720p, 1080p] (Хороший звук DUB, MVO) [ 3.8 GB ] 24 часа на жизнь / 24 Hours to Live [2017 BDRip 720p by msltel] 2 x DUB AVO msltel Скачать
1 | 0
Фильмы [HD 720p, 1080p] (Хороший звук DUB, MVO) [ 4.29 GB ] 24 часа на жизнь / 24 Hours to Live [2017 BDRip 1080p HEVC ()] Мичман37 Скачать
1 | 0
Фильмы 2017 [DVDrip, WEB-DLRip, HDrip] (DUB, MVO) [ 1.42 GB ] 24 часа на жизнь / 24 Hours to Live [2017 BDRip] - Twi7ter Скачать
1 | 0
Фильмы 2017 [DVDrip, WEB-DLRip, HDrip] (DUB, MVO) [ 2.63 GB ] 24 часа на жизнь / 24 Hours to Live [2017 BDRip-AVC DUB] WorldSM Скачать
1 | 0

28-11-2019 20:33  

Отключить всю рекламу на сайте

07-10-2018 14:33 24 часа на жизнь Скачать торрент  

Большое спасибо за отличное качество.
Великолепный фильм.
10 из 10pb.wtf



    Дорогой пользователь! Огромная просьба, поблагодарите релизера, оцените раздачу и оставьте свои комментарий, если Вы скачали 24 часа на жизнь через торрент бесплатно! Внесите свою лепту в развитие PiratBit!
    Комментировать посты могут только пользователи прошедшие не сложную регистрацию
    Показать сообщения:    

    24 часа на жизнь через торрент
    Скачать бесплатно 24 часа на жизнь
    24 часа на жизнь скачать торрент
    24 часа на жизнь смотреть онлайн
    Cкачать фильм 24 часа на жизнь бесплатно
    24 часа на жизнь скачать торрент в хорошем качестве
    24 часа на жизнь смотреть онлайн бесплатно в хорошем качестве


    Вы не можете начинать темы
    Вы не можете отвечать на сообщения
    Вы не можете редактировать свои сообщения
    Вы не можете удалять свои сообщения
    Вы не можете голосовать в опросах
    Вы не можете прикреплять файлы к сообщениям
    Вы можете скачивать файлы