2 сезон

iTunes

MVO

1

2 сезон

iTunes

iTunes

1 сезон

RePack

30

Новинка

ВАЖНО

ИГРА 18+

pack

RePack

MK11
pack

Легкие деньги

RePack

jed

RePack

fifa19

RePack

RDR2

RePack

NEED FOR SPEED™ PAYBACK

4 сезон

9 сезон

Бесстыжие 9 сезон

Все сериалы

все сериалы на PB.wtf

RePack

FAR CRY 5

Anonymous, добрый день, мы не успеваем собрать деньги на оплату серверов за декабрь и январь, помогите нам пожалуйста в это трудное время. В качестве благодарности мы отключим Вам всю рекламу на сайте (укажите свой ник в строку Ваше имя)!

×
  
Magnet ссылка

24 часа на жизнь / 24 Hours to Live (Брайан Смрз) [2017, боевик, триллер, фэнтези, BDRip-AVC, DUB] pb.wtf

24 часа на жизнь через торрент pb.wtf

Размер: 2.63 GB | Добавлен: 2 года 11 мес. назад | Торрент скачан:271 раз
Скачать  

26-01-2018 21:45 24 часа на жизнь Скачать торрент  

24 часа на жизнь / 24 Hours to Live
««Цель: выжить»»
Год выпуска: 2017
Страна: ЮАР, Китай, США
Жанр: боевик, триллер, фэнтези
Продолжительность: 01:33:36
Перевод: Дубляж
Субтитры: английские (Full),
Режиссер: Брайан Смрз
В ролях:

Итан Хоук (Travis Conrad), Пол Андерсон (Jim Morrow), Рутгер Хауэр (Frank), Таня ван Граан (Jasmine Morrow), Натали Болтт (Doctor Helen), Лиам Каннингэм (Wetzler), Сюй Цин (Lin), Хаким Кае-Казим (Amahle), Эйдан Уайток (Jeff), Jenna Upton (Kate), Тайрон Кеог (Keith Zera), Эндрю Моргадо (озвучка)
Описание:
Во время очередного задания погибает киллер, на совести которого много невинных жертв. Но таинственным образом он возвращается из потустороннего мира к жизни. И теперь у него есть только 24 часа, чтобы объединившись с убийцей, от руки которого он принял смерть, искупить вину и спасти свою душу.
Мировая премьера: 26 октября 2017
rating
Релиз от:
Релиз Группа
Качество: BDRip-AVC
Формат: MKV
Видео кодек: AVC
Аудио кодек: AC3
Видео: AVC, 1024x428 (2.40:1),~3000 kbps, 23,976 fps, 0,285 bpp
Аудио №1: AC3 / 5.1 / 48 kHz / 384 kbps / Русский
Аудио №2: AC3 / 5.1 / 48 kHz / 640 kbps / Английский
Навигация по главам: есть
Общее
Уникальный идентификатор : 221111686361645421126662672261652114864 (0xA6588FD0EE5ACB68F0FA7834039F6DB0)
Полное имя : D:\video\Раздачи\24.Hours.to.Live.2017.BDRip-AVC by WSM (1).mkv
Формат : Matroska
Версия формата : Version 4 / Version 2
Размер файла : 2,63 Гбайт
Продолжительность : 1 ч. 33 м.
Общий поток : 4025 Кбит/сек
Название фильма : 24 Hours to Live 2017 by WSM
Дата кодирования : UTC 2018-01-26 21:52:00
Программа кодирования : mkvmerge v20.0.0 ('I Am The Sun') 64-bit
Библиотека кодирования : libebml v1.3.5 + libmatroska v1.4.8

Видео
Идентификатор : 1
Формат : AVC
Формат/Информация : Advanced Video Codec
Профиль формата : High@L4.1
Настройки формата : CABAC / 9 Ref Frames
Параметр CABAC формата : Да
Параметр RefFrames формата : 9 кадров
Идентификатор кодека : V_MPEG4/ISO/AVC
Продолжительность : 1 ч. 33 м.
Битрейт : 3000 Кбит/сек
Ширина : 1024 пикселя
Высота : 428 пикселей
Соотношение сторон : 2,40:1
Режим частоты кадров : Постоянный
Частота кадров : 23,976 (24000/1001) кадра/сек
Цветовое пространство : YUV
Субдискретизация насыщенности : 4:2:0
Битовая глубина : 8 бит
Тип развёртки : Прогрессивная
Бит/(Пиксели*Кадры) : 0.285
Размер потока : 1,96 Гбайт (75%)
Библиотека кодирования : x264 core 152 r2851 ba24899
Настройки программы : cabac=1 / ref=10 / deblock=1:-3:-3 / analyse=0x3:0x133 / me=umh / subme=10 / psy=0 / mixed_ref=1 / me_range=16 / chroma_me=1 / trellis=2 / 8x8dct=1 / cqm=0 / deadzone=21,11 / fast_pskip=0 / chroma_qp_offset=0 / threads=6 / lookahead_threads=1 / sliced_threads=0 / nr=0 / decimate=0 / interlaced=0 / bluray_compat=0 / constrained_intra=0 / bframes=5 / b_pyramid=1 / b_adapt=2 / b_bias=0 / direct=3 / weightb=1 / open_gop=0 / weightp=2 / keyint=240 / keyint_min=23 / scenecut=40 / intra_refresh=0 / rc=2pass / mbtree=0 / bitrate=3000 / ratetol=1.0 / qcomp=0.60 / qpmin=10 / qpmax=51 / qpstep=4 / cplxblur=20.0 / qblur=0.5 / ip_ratio=1.40 / pb_ratio=1.30 / aq=1:1.00
Default : Да
Forced : Нет

Аудио #1
Идентификатор : 2
Формат : AC-3
Формат/Информация : Audio Coding 3
Идентификатор кодека : A_AC3
Продолжительность : 1 ч. 33 м.
Вид битрейта : Постоянный
Битрейт : 384 Кбит/сек
Каналы : 6 каналов
Расположение каналов : Front: L C R, Side: L R, LFE
Частота : 48,0 КГц
Частота кадров : 31,250 кадров/сек (1536 SPF)
Битовая глубина : 16 бит
Метод сжатия : С потерями
Размер потока : 256 Мбайт (10%)
Заголовок : iTunes
Язык : Russian
ServiceKind/String : Complete Main
Default : Да
Forced : Нет

Аудио #2
Идентификатор : 3
Формат : AC-3
Формат/Информация : Audio Coding 3
Идентификатор кодека : A_AC3
Продолжительность : 1 ч. 33 м.
Вид битрейта : Постоянный
Битрейт : 640 Кбит/сек
Каналы : 6 каналов
Расположение каналов : Front: L C R, Side: L R, LFE
Частота : 48,0 КГц
Частота кадров : 31,250 кадров/сек (1536 SPF)
Битовая глубина : 16 бит
Метод сжатия : С потерями
Размер потока : 429 Мбайт (16%)
Заголовок : Original
Язык : English
ServiceKind/String : Complete Main
Default : Нет
Forced : Нет

Текст
Идентификатор : 4
Формат : UTF-8
Идентификатор кодека : S_TEXT/UTF8
Идентификатор кодека/Информация : UTF-8 Plain Text
Продолжительность : 1 ч. 26 м.
Битрейт : 43 бит/сек
ElementCount : 815
Размер потока : 27,4 Кбайт (0%)
Заголовок : Full
Язык : English
Default : Нет
Forced : Нет

Меню
00:00:00.000 : en:00:00:00.000
00:05:41.132 : en:00:05:41.132
00:11:46.080 : en:00:11:46.080
00:17:12.323 : en:00:17:12.323
00:24:41.980 : en:00:24:41.980
00:27:46.665 : en:00:27:46.665
00:36:34.567 : en:00:36:34.567
00:41:25.233 : en:00:41:25.233
00:46:28.202 : en:00:46:28.202
00:52:35.569 : en:00:52:35.569
00:58:56.700 : en:00:58:56.700
01:06:55.470 : en:01:06:55.470
01:11:32.497 : en:01:11:32.497
01:17:02.868 : en:01:17:02.868
01:21:17.456 : en:01:21:17.456
01:27:53.268 : en:01:27:53.268
pb.wtf



Скачать 24 часа на жизнь через торрент http://lostpix.com/img/2018-01/27/p3s01562arxyqvfmh0k185te9.jpg Скачать фильм 24 часа на жизнь через торрент бесплантно в хорошем качестве Описание: Во время очередного задания погибает киллер, на совести которого много невинных жертв. Но таинственным образом он возвращается из ... 10 10 7
Info! Золотая раздача, скачанное не засчитывается.
Торрент: Зарегистрирован [2018-01-26 21:45] · скачан: 271 раз
Статус: √ проверено
Размер: 2.63 GB
Как cкачать? Как скачать 24 часа на жизнь через торрент | UTorrent

% Раздел Тема Автор DL S | L
Фильмы [HD 720p, 1080p] (Хороший звук DUB, MVO) [ 3.27 GB ] 24 часа на жизнь / 24 Hours to Live [2017 BDRip 720p] [GER Transfer] - KORSAR kisa1980 Скачать
1 | 1
Фильмы [HD 720p, 1080p] (Хороший звук DUB, MVO) [ 9.71 GB ] 24 часа на жизнь / 24 Hours to Live [2017 BDRip 1080p by msltel] 2 x DUB AVO msltel Скачать
1 | 0
Фильмы 2017 [DVDrip, WEB-DLRip, HDrip] (DUB, MVO) [ 2.74 GB ] 24 часа на жизнь / 24 Hours to Live [2017 BDRip by msltel] 2 x DUB AVO msltel Скачать
1 | 0
Фильмы [HD 720p, 1080p] (Хороший звук DUB, MVO) [ 3.8 GB ] 24 часа на жизнь / 24 Hours to Live [2017 BDRip 720p by msltel] 2 x DUB AVO msltel Скачать
2 | 0
Фильмы [HD 720p, 1080p] (Хороший звук DUB, MVO) [ 4.29 GB ] 24 часа на жизнь / 24 Hours to Live [2017 BDRip 1080p HEVC ()] Мичман37 Скачать
1 | 0
Фильмы [HD 720p, 1080p] (Хороший звук DUB, MVO) [ 8.68 GB ] 24 часа на жизнь / 24 Hours to Live [2017 BDRip 1080p] bober100 Скачать
1 | 0
Фильмы 2017 [DVDrip, WEB-DLRip, HDrip] (DUB, MVO) [ 1.42 GB ] 24 часа на жизнь / 24 Hours to Live [2017 BDRip] - Twi7ter Скачать
1 | 0


Последний раз редактировалось: WorldSM (2018-01-26 23:09), всего редактировалось 2 раз(а)

28-11-2019 20:33  

Отключить всю рекламу на сайте

26-01-2018 22:05 24 часа на жизнь Скачать торрент  

Почему ссылки на КиноПоиск и IMDb левые?pb.wtf



26-01-2018 23:05 24 часа на жизнь Скачать торрент  

DeltaMonster писал(а):

Почему ссылки на КиноПоиск и IMDb левые?

Все норм!pb.wtf



27-01-2018 12:14 24 часа на жизнь Скачать торрент  

Охрененный фильм!pb.wtf



28-01-2018 17:19 24 часа на жизнь Скачать торрент  

что за вещь когда титры ?pb.wtf



28-01-2018 23:42 24 часа на жизнь Скачать торрент  

Fagot300 писал(а):

что за вещь когда титры ?

???pb.wtf



    Дорогой пользователь! Огромная просьба, поблагодарите релизера, оцените раздачу и оставьте свои комментарий, если Вы скачали 24 часа на жизнь через торрент бесплатно! Внесите свою лепту в развитие PiratBit!
    Комментировать посты могут только пользователи прошедшие не сложную регистрацию
    Показать сообщения:    

    24 часа на жизнь через торрент
    Скачать бесплатно 24 часа на жизнь
    24 часа на жизнь скачать торрент
    24 часа на жизнь смотреть онлайн
    Cкачать фильм 24 часа на жизнь бесплатно
    24 часа на жизнь скачать торрент в хорошем качестве
    24 часа на жизнь смотреть онлайн бесплатно в хорошем качестве


    Вы не можете начинать темы
    Вы не можете отвечать на сообщения
    Вы не можете редактировать свои сообщения
    Вы не можете удалять свои сообщения
    Вы не можете голосовать в опросах
    Вы не можете прикреплять файлы к сообщениям
    Вы можете скачивать файлы