Ссылка на приватное зеркало нашего сайта всего за 1$. Внимание количество ограничено!!!

2 сезон

iTunes

1 сезон

1

2 сезон

2 сезон

iTunes

1 сезон

RePack

30

Ultimate

ВАЖНО

ИГРА 18+

pack

RePack

MK11
pack

Забери бонус

RePack

jed

!!Акция!!

Alien_Rage

RePack

fifa19

RePack

Assassins Creed: Odyssey

RePack

NEED FOR SPEED™ PAYBACK

4 сезон

9 сезон

Бесстыжие 9 сезон

Все сериалы

все сериалы на PB.wtf

RePack

FAR CRY 5
  

Британия / Britannia / Сезон: 1 / Серии: 1-9 из 9 (Шери Фоксон, Кристоф Шреве, Люк Уотсон) [2017, фэнтези, драма, WEB-DLRip] MVO [Profix Media] pb.wtf

Британия через торрент pb.wtf

Размер: 4.56 GB | Добавлен: 2 года 4 мес. назад | Торрент скачан:114 раз
Скачать  

27-01-2018 02:24 Британия Скачать торрент  

Британия / Britannia
Год выпуска: 2017
Страна: США, Великобритания
Жанр: фэнтези, драма
Продолжительность: 00:01:00
Перевод: Профессиональный (многоголосый) | Profix Media
Субтитры: отсутствуют

Режиссер: Шери Фоксон, Кристоф Шреве, Люк Уотсон

rating

В ролях:

Дэвид Моррисси, Келли Райлли, Николай Ли Каас, Лиана Корнелл, Гершвин Эсташ мл., Макензи Крук, Бэрри Уорд, Стэнли Вебер, Джо Армстронг, Фортунато Серлино

Описание:

События сериала происходят в начале новой эры, когда Британия была населена очень воинственными кельтскими племенами, которые были не готовы перейти под управление иноземцев, пришедших с далекого юга. Во время римского завоевания Британии две враждующие кельтские воительницы - Керра и Антедия - вынуждены объединить силы, чтобы дать отпор римским легионам под предводительством Авла Плавтия.

Качество: WEB-DLRip
Формат: AVI

Видео: AVI, ~ 1500 Кбит/с, 720х404
Аудио: Русский (MP3, 2 ch, 128 Кбит/с)
скриншот   скриншот   скриншот   скриншот  

Общее
Полное имя : C:\Britannia.S01.WEB-DLRip.Profix.Media\Britannia.S01E01.WEB-DLRip.Profix.Media.avi
Формат : AVI
Формат/Информация : Audio Video Interleave
Размер файла : 791 Мбайт
Продолжительность : 1 ч. 10 м.
Общий поток : 1579 Кбит/сек
Программа кодирования : Lavf57.25.100

Видео
Идентификатор : 0
Формат : xvid
Идентификатор кодека : xvid
Продолжительность : 1 ч. 10 м.
Битрейт : 1438 Кбит/сек
Ширина : 720 пикселей
Высота : 404 пикселя
Соотношение сторон : 16:9
Частота кадров : 25,000 кадров/сек
Тип развёртки : Прогрессивная
Бит/(Пиксели*Кадры) : 0.198
Размер потока : 720 Мбайт (91%)
Заголовок : Video Track

Аудио
Идентификатор : 1
Формат : MPEG Audio
Версия формата : Version 1
Профиль формата : Layer 3
Режим : Joint stereo
Расширение режима : MS Stereo
Идентификатор кодека : 55
Идентификатор кодека/Подсказка : MP3
Продолжительность : 1 ч. 10 м.
Вид битрейта : Постоянный
Битрейт : 128 Кбит/сек
Каналы : 2 канала
Частота : 48,0 КГц
Метод сжатия : С потерями
Размер потока : 64,1 Мбайт (8%)
Выравнивание : Соединение по промежуткам
Продолжительность промежутка : 24 мс. (0,60 видеокадр)
Время предзагрузки промежутка : 24 мс.
Заголовок : Audio Track

Внимание! Раздача ведётся путём добавления новых серий; при каждом добавлении создаётся новый торрент. Чтобы начать докачку новой серии, пользователям необходимо сделать следующее:
(1) остановить скачивание,
(2) удалить старый торрент-файл у себя из клиента (старые серии удалять не надо),
(3) скачать новый торрент-файл из раздачи и запустить его у себя в клиенте вместо старого, при этом указать клиенту путь в старую папку, куда и должно происходить скачивание новых серий.
pb.wtf



Скачать Британия через торрент http://c.radikal.ru/c22/1801/3a/4170684382a2.jpg Скачать фильм Британия через торрент бесплантно в хорошем качестве Описание: События сериала происходят в начале новой эры, когда Британия была населена очень воинственными кельтскими племенами, которые ... 8.7 10 7
Торрент: Зарегистрирован [2018-07-04 10:29] · скачан: 114 раз
Статус: √ проверено
Размер: 4.56 GB
Как cкачать? Как скачать Британия через торрент | qTorrent

% Раздел Тема Автор DL S | L
Зарубежные сериалы [ 34.45 GB ] Британия / Britannia / Сезон: 1 / Серии: 1-9 из 9 [2017 WEBRip 1080p] [MVO] killermax2013 Скачать
1 | 0
Зарубежные сериалы [ 6.19 GB ] Британия / Britannia / Сезон: 1 / Серии: 1-9 из 9 [2018 WEB-DLRip] MVO [SDI Media] bober100 Скачать
8 | 1
Зарубежные сериалы [ 38.81 GB ] Британия / Britannia / Сезон: 1 / Серии: 1-9 из 9 [2018 WEB-DL 1080p] 4xMVO [Jaskier AlexFilm AMS NewStudio] bober100 Скачать
1 | 0
Зарубежные сериалы [ 7.03 GB ] Британия / Britannia / Сезон: 1 / Серии: 1-9 из 9 [2017 HDRip] [MVO] killermax2013 Скачать
1 | 0
Зарубежные сериалы [ 32.81 GB ] Британия / Britannia / 1 сезон / 1-9 серия из 9 [2018 BDRip] [1080p] [MVO] killermax2013 Скачать
1 | 0
Зарубежные сериалы [ 13.96 GB ] Британия / Britannia / 1 сезон / 1-9 серия из 9 [2018 WEB-DL 720p] [MVO] killermax2013 Скачать
1 | 0
Зарубежные сериалы [ 12.45 GB ] Британия / Britannia / Сезон: 1 / Серии: 1-9 из 9 [2017 WEB-DL 720p] MVO [Jaskier] bober100 Скачать
1 | 0

28-11-2019 20:33  

Отключить всю рекламу на сайте

    Дорогой пользователь! Огромная просьба, поблагодарите релизера, оцените раздачу и оставьте свои комментарий, если Вы скачали Британия через торрент бесплатно! Внесите свою лепту в развитие PiratBit!
    Комментировать посты могут только пользователи прошедшие не сложную регистрацию
    Показать сообщения:    

    Британия через торрент
    Скачать бесплатно Британия
    Британия скачать торрент
    Британия смотреть онлайн
    Cкачать фильм Британия бесплатно
    Британия скачать торрент в хорошем качестве
    Британия смотреть онлайн бесплатно в хорошем качестве


    Вы не можете начинать темы
    Вы не можете отвечать на сообщения
    Вы не можете редактировать свои сообщения
    Вы не можете удалять свои сообщения
    Вы не можете голосовать в опросах
    Вы не можете прикреплять файлы к сообщениям
    Вы можете скачивать файлы