Ссылка на приватное зеркало нашего сайта всего за 1$. Внимание количество ограничено!!!

2 сезон

iTunes

iTunes

1

iTunes

iTunes

iTunes

WEBRip

iTunes

30
pack

Вам бонус

ВАЖНО

!!Акция!!

Alien_RageХит недели

RePack

Horizon Zero Dawn

ИГРА 18+

pack

RePack

jed

!!Акция!!

Alien_Rage

RePack

fifa19

RePack

Assassins Creed: Odyssey

RePack

NEED FOR SPEED™ PAYBACK

4 сезон

9 сезон

Бесстыжие 9 сезон

Все сериалы

все сериалы на PB.wtf

RePack

FAR CRY 5
  

Вуди Вудпекер / Woody Woodpecker (Алекс Замм) [2017 г., мультфильм, комедия, семейный, WEB-DLRip,Любительский (многоголосый)КОЛОБОК ] pb.wtf

Вуди Вудпекер через торрент pb.wtf

Размер: 1.37 GB | Добавлен: 2 года 8 мес. назад | Торрент скачан:307 раз
Скачать  

27-01-2018 04:27 Вуди Вудпекер Скачать торрент  

Вуди Вудпекер / Woody Woodpecker
Год выпуска: 2017
Страна: США
Жанр: мультфильм, комедия, семейный
Продолжительность: 01:31:51
Перевод: Любительский (многоголосый)КОЛОБОК
Субтитры: Нет

Режиссер: Алекс Замм

rating

В ролях: Тимоти Омандсон, Таила Айала, Эрик Бауза, Грэм Верчир, Джордана Ларги, Скотт МакНил, Эдриан Макморран, Джейкоб Дейвис, Шон Тайсон

Описание: Гиперактивный дятел вступает в противостояние с городским юристом, который хочет построить дом на месте, где живёт Вуди.

Доп. информация: Примечание: Присутствует реклама!

Качество: WEB-DLRip
Формат: AVI
Видео кодек: XviD
Аудио кодек: AC3
Видео: XviD,720x400, 23.976 fps, 1736 Кбит/с
Аудио#1: AC3,192 kb/s, 2 ch, 48.0 KHz
скриншот   скриншот   скриншот   скриншот   скриншот  

General
Complete name : H:\релизы.торрентфайл\Woody Woodpecker.2017.P.WEB-DLRip.14OOMB.avi
Format : AVI
Format/Info : Audio Video Interleave
File size : 1.37 GiB
Duration : 1h 31mn
Overall bit rate : 2 130 Kbps
Writing application : VirtualDubMod 1.5.10.2 (build 2540/release)
Writing library : VirtualDubMod build 2540/release

Video
ID : 0
Format : MPEG-4 Visual
Format profile : Advanced Simple@L5
Format settings, BVOP : 2
Format settings, QPel : No
Format settings, GMC : No warppoints
Format settings, Matrix : Default (MPEG)
Codec ID : XVID
Codec ID/Hint : XviD
Duration : 1h 31mn
Bit rate : 1 737 Kbps
Width : 720 pixels
Height : 400 pixels
Display aspect ratio : 16:9
Frame rate : 23.976 fps
Color space : YUV
Chroma subsampling : 4:2:0
Bit depth : 8 bits
Scan type : Progressive
Compression mode : Lossy
Bits/(Pixel*Frame) : 0.252
Stream size : 1.11 GiB (82%)
Writing library : XviD 1.2.1 (UTC 2008-12-04)

Audio
ID : 1
Format : AC-3
Format/Info : Audio Coding 3
Mode extension : CM (complete main)
Format settings, Endianness : Big
Codec ID : 2000
Duration : 1h 31mn
Bit rate mode : Constant
Bit rate : 384 Kbps
Channel(s) : 2 channels
Channel positions : Front: L R
Sampling rate : 48.0 KHz
Bit depth : 16 bits
Compression mode : Lossy
Stream size : 252 MiB (18%)
Alignment : Split accross interleaves
Interleave, duration : 42 ms (1.00 video frame)
Interleave, preload duration : 500 ms

pb.wtf



Скачать Вуди Вудпекер через торрент http://i99.fastpic.ru/big/2018/0127/d3/5193de95d1fa37a40ed29286a3f8dad3.png Скачать фильм Вуди Вудпекер через торрент бесплантно в хорошем качестве Описание: Гиперактивный дятел вступает в противостояние с городским юристом, который хочет построить дом на месте, где живёт Вуди.Доп. ... 9.2 10 11
Торрент: Зарегистрирован [2018-01-27 04:27] · скачан: 307 раз
Статус: T временная
Размер: 1.37 GB
Как cкачать? Как скачать Вуди Вудпекер через торрент | qTorrent

% Раздел Тема Автор DL S | L
T Фильмы (мультфильмы) cо спонсором показа (Новинки AVI/MKV) [ 3.14 GB ] Вуди Вудпекер / Woody Woodpecker [2017 мультфильм WEB-DL 720p] MVO [КОЛОБОК] bober100 Скачать
1 | 0

28-11-2019 20:33  

Отключить всю рекламу на сайте

    Дорогой пользователь! Огромная просьба, поблагодарите релизера, оцените раздачу и оставьте свои комментарий, если Вы скачали Вуди Вудпекер через торрент бесплатно! Внесите свою лепту в развитие PiratBit!
    Комментировать посты могут только пользователи прошедшие не сложную регистрацию
    Показать сообщения:    

    Вуди Вудпекер через торрент
    Скачать бесплатно Вуди Вудпекер
    Вуди Вудпекер скачать торрент
    Вуди Вудпекер смотреть онлайн
    Cкачать фильм Вуди Вудпекер бесплатно
    Вуди Вудпекер скачать торрент в хорошем качестве
    Вуди Вудпекер смотреть онлайн бесплатно в хорошем качестве


    Вы не можете начинать темы
    Вы не можете отвечать на сообщения
    Вы не можете редактировать свои сообщения
    Вы не можете удалять свои сообщения
    Вы не можете голосовать в опросах
    Вы не можете прикреплять файлы к сообщениям
    Вы можете скачивать файлы