Ссылка на приватное зеркало нашего сайта всего за 1$. Внимание количество ограничено!!!

2 сезон

iTunes

1 сезон

1

iTunes

iTunes

iTunes

1 сезон

RePack

30

ИГРА 18+

pack

ВАЖНО

!!Акция!!

Alien_RageХит недели

RePack

MK11
pack

Забери бонус

RePack

jed

!!Акция!!

Alien_Rage

RePack

fifa19

RePack

Assassins Creed: Odyssey

RePack

NEED FOR SPEED™ PAYBACK

4 сезон

9 сезон

Бесстыжие 9 сезон

Все сериалы

все сериалы на PB.wtf

RePack

FAR CRY 5
  

Тепло наших тел / Warm Bodies (Джонатан Левин) [2013, ужасы, мелодрама, комедия, BDRip 1080p by msltel] DUB, VO pb.wtf

Тепло наших тел через торрент pb.wtf

Размер: 13.49 GB | Добавлен: 2 года 8 мес. назад | Торрент скачан:92 раза
Скачать  

27-01-2018 07:45 Тепло наших тел Скачать торрент  

Название: Тепло наших тел
Оригинальное название: Warm Bodies
Год выпуска: 2013
Страна: США
Жанр: ужасы, мелодрама, комедия
Продолжительность: 01:37:46
Перевод: дублированный, закадровый одноголосый

Режиссер: Джонатан Левин
В ролях: Николас Холт, Тереза Палмер, Анали Типтон, Роб Кордри, Дэйв Франко, Джон Малкович, Кори Хардрикт, Дэниэл Риндресс-Кей, Винсент Леклерк, Клиффорд ЛеДюк-Вайанкур

О фильме: Мир поражён чумой и стоит на грани вымирания. Покойники ходят по земле и норовят употребить в пищу живых, которые, оставшись в катастрофическом меньшинстве, с трудом держат оборону. Перемены начинаются, когда один зомби, чьё имя при жизни начиналось на Р, спасает девушку вместо того, чтобы её съесть. Дружба, завязавшаяся между представителями враждующих сторон, грозит обоим самыми нехорошими последствиями, но Р и Джули, сами того не подозревая, держат в руках простой и единственный ключ к спасению гибнущего мира... Фильм снят по мотивам романа Айзека Мариона «Тепло наших тел» (Warm Bodies, 2010).



Качество: BDRip 1080p
Формат: MKV
Видео: MPEG-4 AVC, 16.3 Mбит/с, 1920х1080
Аудио 1: русский, AC3, 448 kbps, 6 ch, 48 kHz [дублированный]
Аудио 2: русский, DTS, 1509 kbps, 6 ch, 48 kHz [закадровый одноголосый, den904]
Аудио 3: английский, DTS, 1509 kbps, 6 ch, 48 kHz [оригинал]
Субтитры 1: русские
Субтитры 2: английские
Неименованные главы/чаптеры.
Общее
Уникальный идентификатор : 214062078709855855893464887071967764973 (0xA10ADB52F3E8FDB0A7B1645C608361ED)
Полное имя : D:\Video\Тепло наших тел.2013.BDRip.1080p by msltel.mkv
Формат : Matroska
Версия формата : Version 4 / Version 2
Размер файла : 13,5 Гбайт
Продолжительность : 1 ч. 37 м.
Общий поток : 19,8 Мбит/сек
Название фильма : Rip by msltel
Дата кодирования : UTC 2018-01-27 03:41:45
Программа кодирования : mkvmerge v8.2.0 ('World of Adventure') 64bit
Библиотека кодирования : libebml v1.3.1 + libmatroska v1.4.2

Видео
Идентификатор : 1
Формат : AVC
Формат/Информация : Advanced Video Codec
Профиль формата : High@L4.1
Настройки формата : CABAC / 4 Ref Frames
Параметр CABAC формата : Да
Параметр RefFrames формата : 4 кадра
Идентификатор кодека : V_MPEG4/ISO/AVC
Продолжительность : 1 ч. 37 м.
Битрейт : 16,3 Мбит/сек
Ширина : 1920 пикселей
Высота : 1080 пикселей
Соотношение сторон : 16:9
Режим частоты кадров : Постоянный
Частота кадров : 23,976 (24000/1001) кадра/сек
Цветовое пространство : YUV
Субдискретизация насыщенности : 4:2:0
Битовая глубина : 8 бит
Тип развёртки : Прогрессивная
Бит/(Пиксели*Кадры) : 0.328
Размер потока : 11,1 Гбайт (82%)
Библиотека кодирования : x264 core 146 r2538 121396c
Настройки программы : cabac=1 / ref=4 / deblock=1:-3:-2 / analyse=0x3:0x113 / me=umh / subme=11 / psy=1 / psy_rd=1.00:0.15 / mixed_ref=1 / me_range=32 / chroma_me=1 / trellis=2 / 8x8dct=1 / cqm=0 / deadzone=21,11 / fast_pskip=0 / chroma_qp_offset=-3 / threads=6 / lookahead_threads=1 / sliced_threads=0 / nr=0 / decimate=1 / interlaced=0 / bluray_compat=0 / constrained_intra=0 / bframes=6 / b_pyramid=2 / b_adapt=2 / b_bias=0 / direct=1 / weightb=1 / open_gop=0 / weightp=2 / keyint=230 / keyint_min=23 / scenecut=40 / intra_refresh=0 / rc_lookahead=40 / rc=crf / mbtree=0 / crf=19.0 / qcomp=0.60 / qpmin=0 / qpmax=69 / qpstep=4 / vbv_maxrate=62500 / vbv_bufsize=78125 / crf_max=0.0 / nal_hrd=none / filler=0 / ip_ratio=1.40 / pb_ratio=1.30 / aq=1:1.00
Язык : English
Default : Да
Forced : Нет

Аудио #1
Идентификатор : 2
Формат : AC-3
Формат/Информация : Audio Coding 3
Идентификатор кодека : A_AC3
Продолжительность : 1 ч. 37 м.
Вид битрейта : Постоянный
Битрейт : 448 Кбит/сек
Каналы : 6 каналов
Расположение каналов : Front: L C R, Side: L R, LFE
Частота : 48,0 КГц
Частота кадров : 31,250 кадров/сек (1536 SPF)
Битовая глубина : 16 бит
Метод сжатия : С потерями
Размер потока : 313 Мбайт (2%)
Заголовок : DUB
Язык : Russian
ServiceKind/String : Complete Main
Default : Да
Forced : Нет

Аудио #2
Идентификатор : 3
Формат : DTS
Формат/Информация : Digital Theater Systems
Идентификатор кодека : A_DTS
Продолжительность : 1 ч. 37 м.
Вид битрейта : Постоянный
Битрейт : 1510 Кбит/сек
Каналы : 6 каналов
Расположение каналов : Front: L C R, Side: L R, LFE
Частота : 48,0 КГц
Частота кадров : 93,750 кадра/сек (512 SPF)
Битовая глубина : 24 бит
Метод сжатия : С потерями
Размер потока : 1,03 Гбайт (8%)
Заголовок : den904
Язык : Russian
Default : Нет
Forced : Нет

Аудио #3
Идентификатор : 4
Формат : DTS
Формат/Информация : Digital Theater Systems
Идентификатор кодека : A_DTS
Продолжительность : 1 ч. 37 м.
Вид битрейта : Постоянный
Битрейт : 1509 Кбит/сек
Каналы : 6 каналов
Расположение каналов : Front: L C R, Side: L R, LFE
Частота : 48,0 КГц
Частота кадров : 93,750 кадра/сек (512 SPF)
Битовая глубина : 24 бит
Метод сжатия : С потерями
Размер потока : 1,03 Гбайт (8%)
Заголовок : original
Язык : English
Default : Нет
Forced : Нет

Текст #1
Идентификатор : 5
Формат : UTF-8
Идентификатор кодека : S_TEXT/UTF8
Идентификатор кодека/Информация : UTF-8 Plain Text
Продолжительность : 1 ч. 30 м.
Битрейт : 58 бит/сек
ElementCount : 628
Размер потока : 38,7 Кбайт (0%)
Заголовок : русские.Spanky_G
Язык : Russian
Default : Нет
Forced : Нет

Текст #2
Идентификатор : 6
Формат : UTF-8
Идентификатор кодека : S_TEXT/UTF8
Идентификатор кодека/Информация : UTF-8 Plain Text
Продолжительность : 1 ч. 30 м.
Битрейт : 37 бит/сек
ElementCount : 897
Размер потока : 24,8 Кбайт (0%)
Заголовок : английские
Язык : English
Default : Нет
Forced : Нет

Меню
00:00:00.000 : en:Chapter 1
00:06:39.857 : en:Chapter 2
00:12:24.201 : en:Chapter 3
00:19:24.580 : en:Chapter 4
00:24:22.919 : en:Chapter 5
00:31:17.625 : en:Chapter 6
00:40:52.408 : en:Chapter 7
00:45:32.563 : en:Chapter 8
00:49:56.284 : en:Chapter 9
00:55:44.090 : en:Chapter 10
01:02:25.491 : en:Chapter 11
01:08:49.875 : en:Chapter 12
01:14:08.861 : en:Chapter 13
01:17:27.392 : en:Chapter 14
01:24:00.702 : en:Chapter 15
01:30:30.758 : en:Chapter 16
pb.wtf



Скачать Тепло наших тел через торрент https://b.radikal.ru/b18/1801/c6/538a71b821c7.jpg Скачать фильм Тепло наших тел через торрент бесплантно в хорошем качестве О фильме: Мир поражён чумой и стоит на грани вымирания. Покойники ходят по земле и норовят употребить в пищу живых, которые, оставшись в ... 8.5 10 6
Info! Золотая раздача, скачанное не засчитывается.
Торрент: Зарегистрирован [2018-01-27 07:45] · скачан: 92 раз
Статус: √ проверено
Размер: 13.49 GB
Как cкачать? Как скачать Тепло наших тел через торрент | qTorrent

% Раздел Тема Автор DL S | L
Ultra HD (UHD: 2K, 4K, 8K) — видео сверхвысокой чёткости [ 67.24 GB ] Тепло наших тел / Warm Bodies [2013 UHD BDRemux 2160p ] DUB [] +VO [den904] bober100 Скачать
1 | 0
Фильмы [HD 720p, 1080p] (Хороший звук DUB, MVO) [ 4.66 GB ] Тепло наших тел / Warm Bodies [2013 BDRip 720p by msltel] DUB VO msltel Скачать
1 | 0

28-11-2019 20:33  

Отключить всю рекламу на сайте

27-01-2018 07:54 Тепло наших тел Скачать торрент  

Нормальный фильм.
Интересная история.pb.wtf



27-01-2018 16:11 Тепло наших тел Скачать торрент  

очень понравился и музыка из негоpb.wtf



    Дорогой пользователь! Огромная просьба, поблагодарите релизера, оцените раздачу и оставьте свои комментарий, если Вы скачали Тепло наших тел через торрент бесплатно! Внесите свою лепту в развитие PiratBit!
    Комментировать посты могут только пользователи прошедшие не сложную регистрацию
    Показать сообщения:    

    Тепло наших тел через торрент
    Скачать бесплатно Тепло наших тел
    Тепло наших тел скачать торрент
    Тепло наших тел смотреть онлайн
    Cкачать фильм Тепло наших тел бесплатно
    Тепло наших тел скачать торрент в хорошем качестве
    Тепло наших тел смотреть онлайн бесплатно в хорошем качестве


    Вы не можете начинать темы
    Вы не можете отвечать на сообщения
    Вы не можете редактировать свои сообщения
    Вы не можете удалять свои сообщения
    Вы не можете голосовать в опросах
    Вы не можете прикреплять файлы к сообщениям
    Вы можете скачивать файлы