2 сезон

iTunes

MVO

1

2 сезон

iTunes

iTunes

1 сезон

RePack

30

Новинка

ВАЖНО

ИГРА 18+

pack

RePack

MK11
pack

Легкие деньги

RePack

jed

RePack

fifa19

RePack

RDR2

RePack

NEED FOR SPEED™ PAYBACK

4 сезон

9 сезон

Бесстыжие 9 сезон

Все сериалы

все сериалы на PB.wtf

RePack

FAR CRY 5

Anonymous, добрый вечер, мы не успеваем собрать деньги на оплату серверов за декабрь и январь, помогите нам пожалуйста в это трудное время. В качестве благодарности мы отключим Вам всю рекламу на сайте (укажите свой ник в строку Ваше имя)!

×
  
Magnet ссылка

Виктория и Абдул / Victoria & Abdul / Victoria and Abdul (Стивен Фрирз / Stephen Frears) [2017, драма, биография, история, BDRip-AVC] Dub [Лицензия] pb.wtf

Виктория и Абдул через торрент pb.wtf

Раздают: 1 [ 0 KB/s ]
Размер: 1.46 GB | Добавлен: 2 года 11 мес. назад | Торрент скачан:121 раз
Скачать  

27-01-2018 13:45 Виктория и Абдул Скачать торрент  

Виктория и Абдул
Victoria & Abdul / Victoria and Abdul

«History's most unlikely friendship»


Страна: Великобритания, США
Жанр: драма, биография, история

Год выпуска: 2017
Продолжительность: 01:51:34

Перевод: Профессиональный (полное дублирование) [Blu-ray CEE]
Субтитры: русские (форсированные, полные)
Оригинальная аудиодорожка: нет

Режиссер: Стивен Фрирз / Stephen Frears

В ролях: Джуди Денч, Али Фазал, Тим Пиготт-Смит, Эдди Иззард, Адиль Ахтар, Майкл Гэмбон, Пол Хиггинс, Оливия Уильямс, Фенелла Вулгар, Джулиан Уэдэм, Робин Соанс, Рут МакКейб

Описание:
Взойдя на престол в возрасте 18-ти лет, Виктория стала королевой Великобритании, Ирландии, а позже и императрицей Индии. Среди бесчисленных подданных короны был красавец Абдул Карим. Появившись, казалось бы, из ниоткуда, он превратился в очень влиятельного человека при дворе. Ему завидовали, против него плели интриги, а их отношения с королевой обсуждали не только в Англии, но и во всем мире.



Релиз:

Автор рипа: stalkerok | Моя группа

Сэмпл

Качество видео: BDRip-AVC [Victoria.and.Abdul.2017.1080p.BluRay.CEE.AVC.DTS-HD.MA.5.1-PSiG @ HDBits]
Формат видео: MKV
Видео кодек: AVC
Аудио кодек: AC3
Видео: 1420 Кбит/сек, 1070x448 (2.40:1), 23,976 кадр/сек, AVC
Аудио: русский, 448 Кбит/сек, 48 КГц, 5.1, AC3
Навигация по главам: есть

---[Information] [27.01.2018 14:52:42] x264 [info]: frame I:1240 Avg QP:15.75 size: 63314
---[Information] [27.01.2018 14:52:42] x264 [info]: frame P:31681 Avg QP:17.54 size: 17910
---[Information] [27.01.2018 14:52:42] x264 [info]: frame B:127587 Avg QP:20.10 size: 4253

General
Unique ID : 225886134373162137193961354129274743487 (0xA9F01647040BC6D5A434183972CAAABF)
Complete name : M:\$new\Victoria.and.Abdul.2017.BDRip-AVC.RUS.stalkerok.new-team.mkv
Format : Matroska
Format version : Version 4 / Version 2
File size : 1.46 GiB
Duration : 1 h 51 min
Overall bit rate : 1 870 kb/s
Movie name : Victoria and Abdul (2017) (Rip by stalkerok)
Encoded date : UTC 2018-01-27 13:28:27
Writing application : mkvmerge v8.6.1 ('Flying') 64bit
Writing library : libebml v1.3.3 + libmatroska v1.4.4

Video
ID : 1
Format : AVC
Format/Info : Advanced Video Codec
Format profile : High@L4.1
Format settings, CABAC : Yes
Format settings, ReFrames : 12 frames
Codec ID : V_MPEG4/ISO/AVC
Duration : 1 h 51 min
Bit rate : 1 420 kb/s
Width : 1 070 pixels
Height : 448 pixels
Display aspect ratio : 2.40:1
Frame rate mode : Constant
Frame rate : 23.976 (24000/1001) FPS
Color space : YUV
Chroma subsampling : 4:2:0
Bit depth : 8 bits
Scan type : Progressive
Bits/(Pixel*Frame) : 0.124
Stream size : 1.11 GiB (76%)
Title : Victoria and Abdul (2017) (Rip by stalkerok)
Writing library : x264 core 152 r2851kMod ba24899
Encoding settings : cabac=1 / ref=12 / deblock=1:-3:-2 / analyse=0x3:0x133 / me=umh / subme=11 / psy=1 / fade_compensate=0.00 / psy_rd=1.00:0.00 / mixed_ref=1 / me_range=32 / chroma_me=1 / trellis=2 / 8x8dct=1 / cqm=0 / deadzone=21,11 / fast_pskip=0 / chroma_qp_offset=-2 / threads=12 / lookahead_threads=3 / sliced_threads=0 / nr=0 / decimate=1 / interlaced=0 / bluray_compat=0 / constrained_intra=0 / bframes=15 / b_pyramid=2 / b_adapt=2 / b_bias=0 / direct=3 / weightb=1 / open_gop=0 / weightp=2 / keyint=240 / keyint_min=23 / scenecut=40 / intra_refresh=0 / rc_lookahead=60 / rc=crf / mbtree=0 / crf=17.7000 / qcomp=0.65 / qpmin=0 / qpmax=69 / qpstep=4 / vbv_maxrate=50000 / vbv_bufsize=62500 / crf_max=0.0 / nal_hrd=none / filler=0 / ip_ratio=1.40 / pb_ratio=1.30 / aq=3:0.80 / zones=150765,160507,q=34
Default : Yes
Forced : No

Audio
ID : 3
Format : AC-3
Format/Info : Audio Coding 3
Mode extension : CM (complete main)
Format settings, Endianness : Big
Codec ID : A_AC3
Duration : 1 h 51 min
Bit rate mode : Constant
Bit rate : 448 kb/s
Channel(s) : 6 channels
Channel positions : Front: L C R, Side: L R, LFE
Sampling rate : 48.0 kHz
Frame rate : 31.250 FPS (1536 spf)
Compression mode : Lossy
Stream size : 358 MiB (24%)
Language : Russian
Default : Yes
Forced : No

Text #1
ID : 2
Format : UTF-8
Codec ID : S_TEXT/UTF8
Codec ID/Info : UTF-8 Plain Text
Duration : 1 h 43 min
Bit rate : 1 b/s
Count of elements : 33
Stream size : 1.39 KiB (0%)
Title : Forced
Language : Russian
Default : Yes
Forced : No

Text #2
ID : 4
Format : UTF-8
Codec ID : S_TEXT/UTF8
Codec ID/Info : UTF-8 Plain Text
Duration : 1 h 43 min
Bit rate : 80 b/s
Count of elements : 1286
Stream size : 61.2 KiB (0%)
Language : Russian
Default : No
Forced : No

Menu
00:00:00.000 : en:Chapter 1
00:06:04.864 : en:Chapter 2
00:11:01.535 : en:Chapter 3
00:16:07.758 : en:Chapter 4
00:20:29.561 : en:Chapter 5
00:28:44.431 : en:Chapter 6
00:35:50.940 : en:Chapter 7
00:41:28.777 : en:Chapter 8
00:49:38.892 : en:Chapter 9
00:55:07.220 : en:Chapter 10
01:00:20.575 : en:Chapter 11
01:07:35.843 : en:Chapter 12
01:12:36.477 : en:Chapter 13
01:18:10.894 : en:Chapter 14
01:21:44.524 : en:Chapter 15
01:27:48.763 : en:Chapter 16
01:31:20.641 : en:Chapter 17
01:39:13.197 : en:Chapter 18
01:42:55.252 : en:Chapter 19
01:44:51.285 : en:Chapter 20
скриншот   скриншот   скриншот   скриншот   скриншот   скриншот   скриншот   скриншот   скриншот   скриншот  
pb.wtf



Скачать Виктория и Абдул через торрент http://i6.imageban.ru/out/2017/09/18/2ff75c0c358795c5946784cc1680714d.png Скачать фильм Виктория и Абдул через торрент бесплантно в хорошем качестве Описание:Взойдя на престол в возрасте 18-ти лет, Виктория стала королевой Великобритании, Ирландии, а позже и императрицей Индии. Среди ... 6 10 1
Info! Золотая раздача, скачанное не засчитывается.
Торрент: Зарегистрирован [2018-01-27 13:45] · скачан: 121 раз
Статус: √ проверено
Размер: 1.46 GB
Как cкачать? Как скачать Виктория и Абдул через торрент | UTorrent

28-11-2019 20:33  

Отключить всю рекламу на сайте

    Дорогой пользователь! Огромная просьба, поблагодарите релизера, оцените раздачу и оставьте свои комментарий, если Вы скачали Виктория и Абдул через торрент бесплатно! Внесите свою лепту в развитие PiratBit!
    Комментировать посты могут только пользователи прошедшие не сложную регистрацию
    Показать сообщения:    

    Виктория и Абдул через торрент
    Скачать бесплатно Виктория и Абдул
    Виктория и Абдул скачать торрент
    Виктория и Абдул смотреть онлайн
    Cкачать фильм Виктория и Абдул бесплатно
    Виктория и Абдул скачать торрент в хорошем качестве
    Виктория и Абдул смотреть онлайн бесплатно в хорошем качестве


    Вы не можете начинать темы
    Вы не можете отвечать на сообщения
    Вы не можете редактировать свои сообщения
    Вы не можете удалять свои сообщения
    Вы не можете голосовать в опросах
    Вы не можете прикреплять файлы к сообщениям
    Вы можете скачивать файлы