1 сезон

1 сезон

iTunes

1

КиноПоиск HD

Кинопоиск HD

iTunes

13

1 сезон

RePack

30

Новинка

ВАЖНО

ИГРА 18+

pack

RePack

MK11
pack

Легкие деньги

RePack

jed

RePack

fifa19

RePack

RDR2

RePack

NEED FOR SPEED™ PAYBACK

4 сезон

9 сезон

Бесстыжие 9 сезон

Все сериалы

все сериалы на PB.wtf

RePack

FAR CRY 5
  
Magnet ссылка

Пираты северных морей / Erkan & Stefan in Der Tod kommt krass (Михаэль Карен) [2005 г., Комедия, DVDRip-AVC, Профессиональный (многоголосый)] от ExKinoRay pb.wtf

Пираты северных морей через торрент pb.wtf

Размер: 2.23 GB | Добавлен: 3 года 2 мес. назад | Торрент скачан:45 раз
Скачать  

27-01-2018 15:36 Пираты северных морей Скачать торрент  

Пираты северных морей / Erkan & Stefan in Der Tod kommt krass
Год выпуска: 2005
Страна: Германия
Жанр: Комедия
Продолжительность: 01:32:48
Перевод: Профессиональный (многоголосый)

Режиссер: Михаэль Карен

Премьера в мире: 19 мая 2005

rating

В ролях: Эркан Мария Мусляйтнер, Штефан Луст, Людгер Пистор, Андреа Завацки, Михаэль Шиллер, Торстен Феллер, Арцу Бацман, Юлия Дитце, Михаэль Шварцмайер, Хенни Реентс

Описание: Эркан и Штефан побеждают в невероятно популярной телеигре звездного ведущего Харди Фландерса. И теперь им предстоит выбрать между ста тысячами евро и призом-суперсюрпризом. И пока Эркан прикидывает, куда можно потратить деньги, Штефан выбирает сюрприз… и выигрывает два билета на круиз!
Друзья загружаются на борт судна «Альбатрос», предвкушая две недели отдыха в тропических широтах в обществе самых шикарных «телок» и своего кумира Харди, обещавшего принять их в свое новое шоу. Как же они ошибались! «Альбатрос» совершает круиз не по южным, а по северным морям, «телки» в упор не хотят их замечать, но самое страшное — Харди найден мертвым в их туалете. Как же оживить мертвеца и заставить подписать нужные бумаги, а заодно сорвать заговор международных террористов, готовящих захват корабля? Для Эркана и Штефана не существует ничего невозможного…

Доп. информация: Третья часть немецкой комедийной трилогии "Тел(к)охранители (Эркан и Штефан)"

Качество: DVDRip-AVC
Формат: MKV
Видео кодек: MPEG4
Аудио кодек: AC3
Видео: MPEG-4 AVC, 2800 Кбит/с, 712x552@1012x552, 25 кадров/сек
Аудио#1: Русский (AC3, 2 ch, 192 Кбит/с, 48 КГц)
Аудио#2: Немецкий (AC3, 6 ch, 448 Кбит/с, 48 КГц)
Релиз от:




raw [info]: 712x552p 64:45 @ 25/1 fps (cfr)
x264 [info]: using SAR=64/45
x264 [info]: using cpu capabilities: MMX2 SSE2Fast LZCNT
x264 [info]: profile High, level 4.1
x264 [info]: frame I:1105 Avg QP:15.19 size: 77170
x264 [info]: frame P:32571 Avg QP:17.86 size: 30102
x264 [info]: frame B:105547 Avg QP:20.08 size: 8371
x264 [info]: consecutive B-frames: 2.6% 4.5% 11.0% 20.8% 9.0% 51.2% 0.7% 0.0% 0.0% 0.0% 0.0% 0.0% 0.0% 0.0% 0.0% 0.0% 0.0%
-----
Общее
Уникальный идентификатор : 204397512531787588079443285154828037401 (0x99C5876C2C073529A1ED22091616AD19)
Полное имя : D:\ExKinoRay\Telkohraniteli3.2005.DVDRip-AVC.ExKinoRay.mkv
Формат : Matroska
Версия формата : Version 2
Размер файла : 2,23 Гбайт
Продолжительность : 1 ч. 32 м.
Общий поток : 3442 Кбит/сек
Дата кодирования : UTC 2018-01-27 10:55:57
Программа кодирования : mkvmerge v7.8.0 ('River Man') 32bit built on Apr 3 2015 12:11:22
Библиотека кодирования : libebml v1.3.1 + libmatroska v1.4.2

Видео
Идентификатор : 1
Формат : AVC
Формат/Информация : Advanced Video Codec
Профиль формата : High@L4.1
Параметр CABAC формата : Да
Параметр ReFrames формата : 14 кадров
Идентификатор кодека : V_MPEG4/ISO/AVC
Продолжительность : 1 ч. 32 м.
Битрейт : 2800 Кбит/сек
Ширина : 712 пикселей
Высота : 552 пикселя
Соотношение сторон : 1,85:1
Соотношение сторон в оригинале : 1,85:1
Режим частоты кадров : Постоянный
Частота кадров : 25,000 кадров/сек
Цветовое пространство : YUV
Субдискретизация насыщенности : 4:2:0
Битовая глубина : 8 бит
Тип развёртки : Прогрессивная
Бит/(Пиксели*Кадры) : 0.285
Размер потока : 1,77 Гбайт (79%)
Библиотека кодирования : x264 core 148 r2638 7599210
Настройки программы : cabac=1 / ref=14 / deblock=1:-2:-2 / analyse=0x3:0x133 / me=umh / subme=10 / psy=1 / psy_rd=1.05:0.15 / mixed_ref=1 / me_range=32 / chroma_me=1 / trellis=2 / 8x8dct=1 / cqm=0 / deadzone=21,11 / fast_pskip=0 / chroma_qp_offset=-3 / threads=4 / lookahead_threads=1 / sliced_threads=0 / nr=0 / decimate=0 / interlaced=0 / bluray_compat=0 / constrained_intra=0 / bframes=16 / b_pyramid=2 / b_adapt=2 / b_bias=0 / direct=3 / weightb=1 / open_gop=0 / weightp=2 / keyint=250 / keyint_min=25 / scenecut=40 / intra_refresh=0 / rc=2pass / mbtree=0 / bitrate=2800 / ratetol=1.0 / qcomp=0.60 / qpmin=0 / qpmax=69 / qpstep=4 / cplxblur=20.0 / qblur=0.5 / ip_ratio=1.40 / pb_ratio=1.30 / aq=1:1.00
Язык : English
Default : Да
Forced : Нет
Цветовой диапазон : Limited
Основные цвета : BT.601 NTSC
Характеристики трансфера : BT.601
Коэффициенты матрицы : BT.601

Аудио #1
Идентификатор : 2
Формат : AC-3
Формат/Информация : Audio Coding 3
Расширение режима : CM (complete main)
Параметр Endianness формата : Big
Идентификатор кодека : A_AC3
Продолжительность : 1 ч. 32 м.
Вид битрейта : Постоянный
Битрейт : 192 Кбит/сек
Каналы : 2 канала
Расположение каналов : Front: L R
Частота : 48,0 КГц
Частота кадров : 31,250 кадров/сек (1536 spf)
Метод сжатия : С потерями
Размер потока : 127 Мбайт (6%)
Язык : Russian
Default : Да
Forced : Нет

Аудио #2
Идентификатор : 3
Формат : AC-3
Формат/Информация : Audio Coding 3
Расширение режима : CM (complete main)
Параметр Endianness формата : Big
Идентификатор кодека : A_AC3
Продолжительность : 1 ч. 32 м.
Вид битрейта : Постоянный
Битрейт : 448 Кбит/сек
Каналы : 6 каналов
Расположение каналов : Front: L C R, Side: L R, LFE
Частота : 48,0 КГц
Частота кадров : 31,250 кадров/сек (1536 spf)
Метод сжатия : С потерями
Размер потока : 297 Мбайт (13%)
Язык : German
Default : Нет
Forced : Нет

pb.wtf



Скачать Пираты северных морей через торрент http://d.radikal.ru/d08/1801/c5/f58543e8bef3.jpg Скачать фильм Пираты северных морей через торрент бесплантно в хорошем качестве Описание: Эркан и Штефан побеждают в невероятно популярной телеигре звездного ведущего Харди Фландерса. И теперь им предстоит выбрать между ... 5.5 10 2
Info! Золотая раздача, скачанное не засчитывается.
Торрент: Зарегистрирован [2018-01-27 15:36] · скачан: 45 раз
Статус: √ проверено
Размер: 2.23 GB
Как cкачать? Как скачать Пираты северных морей через торрент | UTorrent

28-11-2019 20:33  

Отключить всю рекламу на сайте

27-01-2018 20:36 Пираты северных морей Скачать торрент  

Топик был перенесен из форума Оформление раздач (Кино, Видео и ТВ) в форум Фильмы 2001-2005


bober100pb.wtf



    Дорогой пользователь! Огромная просьба, поблагодарите релизера, оцените раздачу и оставьте свои комментарий, если Вы скачали Пираты северных морей через торрент бесплатно! Внесите свою лепту в развитие PiratBit!
    Комментировать посты могут только пользователи прошедшие не сложную регистрацию
    Показать сообщения:    

    Пираты северных морей через торрент
    Скачать бесплатно Пираты северных морей
    Пираты северных морей скачать торрент
    Пираты северных морей смотреть онлайн
    Cкачать фильм Пираты северных морей бесплатно
    Пираты северных морей скачать торрент в хорошем качестве
    Пираты северных морей смотреть онлайн бесплатно в хорошем качестве


    Вы не можете начинать темы
    Вы не можете отвечать на сообщения
    Вы не можете редактировать свои сообщения
    Вы не можете удалять свои сообщения
    Вы не можете голосовать в опросах
    Вы не можете прикреплять файлы к сообщениям
    Вы можете скачивать файлы