Ссылка на приватное зеркало нашего сайта всего за 1$. Внимание количество ограничено!!!

2 сезон

iTunes

1 сезон

1

iTunes

iTunes

iTunes

1 сезон

RePack

30

ИГРА 18+

pack

ВАЖНО

!!Акция!!

Alien_RageХит недели

RePack

MK11
pack

Забери бонус

RePack

jed

!!Акция!!

Alien_Rage

RePack

fifa19

RePack

Assassins Creed: Odyssey

RePack

NEED FOR SPEED™ PAYBACK

4 сезон

9 сезон

Бесстыжие 9 сезон

Все сериалы

все сериалы на PB.wtf

RePack

FAR CRY 5
  

Ожидается ураганный ветер /Серия 1-4 из 4 / (Станислав Дремов) [2018 г., Драма, SATRip] pb.wtf

Ожидается ураганный ветер через торрент pb.wtf

Размер: 2.46 GB | Добавлен: 2 года 9 мес. назад | Торрент скачан:109 раз
Скачать  

27-01-2018 15:49 Ожидается ураганный ветер Скачать торрент  

Ожидается ураганный ветер /Серия 1-4 из 4 /
Год выпуска: 2018
Страна: Россия
Жанр: Драма
Продолжительность: 4х~00: 46:00
Субтитры: Нет

Режиссер: Станислав Дремов



В ролях: Наталья Терехова, Юрий Батурин, Полина Маршалл, Влад Резник, Галина Сумина, Мария Жиганова, Игорь Ботвин

Описание: Счастливая жизнь Марии Турбиной заканчивается, когда в годовщину свадьбы ее вместе с мужем и сестрой застигает ураган. Они не успевают доехать до своего загородного дома, где должно было происходить празднование. Вместо этого им приходится остановиться на ночь в придорожном мотеле. Здесь-то Мария и узнает, что ее муж изменяет ей с сестрой. Она в отчаянии сбегает из мотеля. Но ее неприятности только начинаются. Она оказывается в заложниках у сбежавшего из тюрьмы убийцы Михаила Шведова. За Шведовым ведется охота, а Марию считают соучастницей. Теперь ей придется разобраться в себе, своей жизни, и распутать как собственный любовный треугольник, так и загадочное убийство...

Качество: SATRip
Формат: AVI
Видео кодек: XviD
Аудио кодек: MP3
Видео: 720x400 (1.80:1), 25 fps, XviD build 50 ~1800 kbps
Аудио#1: 48 kHz, MPEG Layer 3, 2 ch, ~128.00 kbps avg
скриншот   скриншот   скриншот   скриншот  

General
Complete name : H:\релизы.торрентфайл\Ozhidaetsja.uragannyj.veter.SATRip.[www.riperam.org]\Ozhidaetsja.uragannyj.veter.01.SATRip.[www.riperam.org].avi
Format : AVI
Format/Info : Audio Video Interleave
File size : 641 MiB
Duration : 46mn 15s
Overall bit rate : 1 938 Kbps
Writing application : VirtualDubMod 1.5.10.3 | www.virtualdub-fr.org || (build 2550/release)
Writing library : VirtualDubMod build 2550/release

Video
ID : 0
Format : MPEG-4 Visual
Format profile : Advanced Simple@L5
Format settings, BVOP : 2
Format settings, QPel : No
Format settings, GMC : No warppoints
Format settings, Matrix : Default (H.263)
Codec ID : XVID
Codec ID/Hint : XviD
Duration : 46mn 15s
Bit rate : 1 800 Kbps
Width : 720 pixels
Height : 400 pixels
Display aspect ratio : 16:9
Frame rate : 25.000 fps
Color space : YUV
Chroma subsampling : 4:2:0
Bit depth : 8 bits
Scan type : Progressive
Compression mode : Lossy
Bits/(Pixel*Frame) : 0.250
Stream size : 595 MiB (93%)
Writing library : XviD 1.2.1 (UTC 2008-12-04)

Audio
ID : 1
Format : MPEG Audio
Format version : Version 1
Format profile : Layer 3
Mode : Joint stereo
Mode extension : MS Stereo
Codec ID : 55
Codec ID/Hint : MP3
Duration : 46mn 15s
Bit rate mode : Constant
Bit rate : 128 Kbps
Channel(s) : 2 channels
Sampling rate : 48.0 KHz
Compression mode : Lossy
Stream size : 42.3 MiB (7%)
Alignment : Aligned on interleaves
Interleave, duration : 40 ms (1.00 video frame)
Interleave, preload duration : 504 ms
Writing library : LAME3.99r
Encoding settings : -m j -V 4 -q 9 -lowpass 17 -b 128

pb.wtf



Скачать Ожидается ураганный ветер через торрент http://i99.fastpic.ru/big/2018/0127/f9/e90067a4b79912f201c73430066e7ff9.jpg Скачать фильм Ожидается ураганный ветер через торрент бесплантно в хорошем качестве Описание: Счастливая жизнь Марии Турбиной заканчивается, когда в годовщину свадьбы ее вместе с мужем и сестрой застигает ураган. Они не ... 9.6 10 5
Торрент: Зарегистрирован [2018-01-27 15:49] · скачан: 109 раз
Статус: √ проверено
Размер: 2.46 GB
Как cкачать? Как скачать Ожидается ураганный ветер через торрент | qTorrent

% Раздел Тема Автор DL S | L
Наши сериалы [ 4.72 GB ] Ожидается ураганный ветер / Серии: 1-4 из 4 [2017 HDTVRip 720p] bober100 Скачать
1 | 0
Наши сериалы [ 2.21 GB ] Ожидается ураганный ветер / Серии: 1-4 из 4 [2018 SATRip-AVC] aleksan55 Скачать
1 | 0

28-11-2019 20:33  

Отключить всю рекламу на сайте

28-01-2018 13:26 Ожидается ураганный ветер Скачать торрент  

Нормальный такой детективчик,раздающему спасибо.pb.wtf



    Дорогой пользователь! Огромная просьба, поблагодарите релизера, оцените раздачу и оставьте свои комментарий, если Вы скачали Ожидается ураганный ветер через торрент бесплатно! Внесите свою лепту в развитие PiratBit!
    Комментировать посты могут только пользователи прошедшие не сложную регистрацию
    Показать сообщения:    

    Ожидается ураганный ветер через торрент
    Скачать бесплатно Ожидается ураганный ветер
    Ожидается ураганный ветер скачать торрент
    Ожидается ураганный ветер смотреть онлайн
    Cкачать фильм Ожидается ураганный ветер бесплатно
    Ожидается ураганный ветер скачать торрент в хорошем качестве
    Ожидается ураганный ветер смотреть онлайн бесплатно в хорошем качестве


    Вы не можете начинать темы
    Вы не можете отвечать на сообщения
    Вы не можете редактировать свои сообщения
    Вы не можете удалять свои сообщения
    Вы не можете голосовать в опросах
    Вы не можете прикреплять файлы к сообщениям
    Вы можете скачивать файлы