MEGA SALE -50% FORZA HORIZON 4 ULTIMATE+ВСЕ DLC+ОНЛАЙН всего за 599р. 299 руб. (супер цена). Внимание количество ограничено!!!

iTunes

1+1

iTunes

мы

iTunes

1

iTunes

Чернобыль

iTunes

Ральф против интернета

Лицензия

ПШазам

Лицензия

Игра престолов

Лицензия

30
pack

ВАЖНО

!!Акция!!

Alien_RageХит недели

RePack

Resident Evil 21

ИГРА 18+

pack

RePack

Metro:Exodus

!!Акция!!

Alien_Rage

RePack

fifa19

RePack

Assassins Creed: Odyssey

RePack

NEED FOR SPEED™ PAYBACK

3 сезон

9 сезон

Бесстыжие 9 сезон

Все сериалы

все сериалы на PB.wtf

RePack

FAR CRY 5
Ребята, катастрофически не хватает 7730р. для оплаты серверов за АВГУСТ (всвязи с блокировками трафик упал в 3 раза), 1-2р., выручайте.
  

Амазонки на Луне / Amazon Women on the Moon (Джо Данте, Карл Готтлиб, Питер Хортон, Джон Лэндис, Роберт К. Уайсс) [1987 г, фантастика, комедия, BDRip] DVO pb.wtf

Амазонки на Луне через торрент pb.wtf

Размер: 1.09 GB | Добавлен: 1 год 7 мес. назад | Торрент скачан:45 раз
Скачать  

27-01-2018 16:23 Амазонки на Луне Скачать торрент  

Амазонки на Луне / Amazon Women on the Moon
Год выпуска: 1987
Страна: США
Жанр: фантастика, комедия
Продолжительность: 01:24:26
Перевод: Профессиональный (двухголосый)

Режиссер: Джо Данте, Карл Готтлиб, Питер Хортон, Джон Лэндис, Роберт К. Уайсс

rating

В ролях: Арсенио Холл, Доналд Ф. Мюик, Моник Габриэль, Лу Джекоби, Эрика Йон, Дэбби Дэвисон, Роб Крауш, Фил Хартмен, Кори Бёртон, Мишель Пфайффер, Питер Хортон, Гриффин Данн, Джо Пантолиано, Стэнли Брок, Стив Форрест, Роберт Колбер, Джои Траволта, Форрест Дж Экерман, Стив Гуттенберг

Описание: Если вы думаете, что это история о том, как прекрасные амазонки обустраивают свою жизнь на Луне, то очень сильно ошибаетесь. Это пародия на американскую действительность. Создателям фильма давно хотелось снять смешную комедию о повседневной жизни американцев, посмеяться над порядками в обществе, заставить людей улыбнуться по поводу своего же поведения. Удалось это в полной мере. Фильм подобен забавной книге, на каждой новой странице которой находишь очередной комикс…

Качество: BDRip (Amazon.Women.on.the.Moon.1987.1080p.BluRay.REMUX.AVC.FLAC.2.0-EPSiLON)
Формат: AVI
Видео: XviD, 1647 Кбит/с, 720x384, 23.976 Кадр/с
Аудио: АС3, 2 ch, 192 Кбит/с
Релиз от: Koenig
скриншот   скриншот   скриншот   скриншот   скриншот   скриншот  

Общее
Полное имя : Amazon.Women.on.the.Moon.1987.BDRip.avi
Формат : AVI
Формат/Информация : Audio Video Interleave
Размер файла : 1,09 Гбайт
Продолжительность : 1 ч. 24 м.
Общий поток : 1848 Кбит/сек
Программа кодирования : VirtualDubMod 1.5.10.2 (build 2540/release)
Библиотека кодирования : VirtualDubMod build 2540/release

Видео
Идентификатор : 0
Формат : MPEG-4 Visual
Профиль формата : Advanced Simple@L5
Параметр BVOP формата : 1
Параметр QPel формата : Нет
Параметр GMC формата : Без точки перехода
Параметр матрицы формата : Выборочная
Идентификатор кодека : XVID
Идентификатор кодека/Подсказка : XviD
Продолжительность : 1 ч. 24 м.
Битрейт : 1647 Кбит/сек
Ширина : 720 пикселей
Высота : 384 пикселя
Соотношение сторон : 1,85:1
Частота кадров : 23,976 (24000/1001) кадра/сек
Цветовое пространство : YUV
Субдискретизация насыщенности : 4:2:0
Битовая глубина : 8 бит
Тип развёртки : Прогрессивная
Метод сжатия : С потерями
Бит/(Пиксели*Кадры) : 0.248
Размер потока : 995 Мбайт (89%)
Библиотека кодирования : XviD 65

Аудио
Идентификатор : 1
Формат : AC-3
Формат/Информация : Audio Coding 3
Параметр Endianness формата : Big
Идентификатор кодека : 2000
Продолжительность : 1 ч. 24 м.
Вид битрейта : Постоянный
Битрейт : 192 Кбит/сек
Каналы : 2 канала
Расположение каналов : Front: L R
Частота : 48,0 КГц
Частота кадров : 31,250 кадров/сек (1536 spf)
Битовая глубина : 16 бит
Метод сжатия : С потерями
Размер потока : 116 Мбайт (10%)
Выравнивание : Разделение по промежуткам
Продолжительность промежутка : 42 мс. (1,00 видеокадр)
Время предзагрузки промежутка : 500 мс.
ServiceKind/String : Complete Main

pb.wtf



Скачать Амазонки на Луне через торрент http://img12.lostpic.net/2018/01/27/940d4cd10cfc6ef3e8faaf51c5b52376.jpg Скачать фильм Амазонки на Луне через торрент бесплантно в хорошем качестве Описание: Если вы думаете, что это история о том, как прекрасные амазонки обустраивают свою жизнь на Луне, то очень сильно ошибаетесь. Это ... 10 10 2
Торрент: Зарегистрирован [2018-01-27 16:23] · скачан: 45 раз
Статус: √ проверено
Размер: 1.09 GB
Как cкачать? Как скачать Амазонки на Луне через торрент | qTorrent


>> Регистрируемся здесь <<






Отзывы и комментарии о схеме читаем и пишем здесь: ---> Отзывы и комментарии о схеме

Новые благодарочки в телеграм довольных пользователей:
скриншот   скриншот   скриншот   скриншот   скриншот

29-01-2018 10:06 Амазонки на Луне Скачать торрент  

ох уж эти 90, никуда без сисеГpb.wtf



    Дорогой пользователь! Огромная просьба, поблагодарите релизера, оцените раздачу и оставьте свои комментарий, если Вы скачали Амазонки на Луне через торрент бесплатно! Внесите свою лепту в развитие PiratBit!
    Комментировать посты могут только пользователи прошедшие не сложную регистрацию
    Показать сообщения:    

    Амазонки на Луне через торрент
    Скачать бесплатно Амазонки на Луне
    Амазонки на Луне скачать торрент
    Амазонки на Луне смотреть онлайн
    Cкачать фильм Амазонки на Луне бесплатно
    Амазонки на Луне скачать торрент в хорошем качестве
    Амазонки на Луне смотреть онлайн бесплатно в хорошем качестве


    Вы не можете начинать темы
    Вы не можете отвечать на сообщения
    Вы не можете редактировать свои сообщения
    Вы не можете удалять свои сообщения
    Вы не можете голосовать в опросах
    Вы не можете прикреплять файлы к сообщениям
    Вы можете скачивать файлы