2 сезон

iTunes

MVO

1

2 сезон

iTunes

iTunes

1 сезон

RePack

30

Ultimate

ВАЖНО

ИГРА 18+

pack

RePack

MK11
pack

Легкие деньги

RePack

jed

RePack

fifa19

RePack

RDR2

RePack

NEED FOR SPEED™ PAYBACK

4 сезон

9 сезон

Бесстыжие 9 сезон

Все сериалы

все сериалы на PB.wtf

RePack

FAR CRY 5

Anonymous, доброй ночи, мы не успеваем собрать деньги на оплату серверов за декабрь и январь, помогите нам пожалуйста в это трудное время. В качестве благодарности мы отключим Вам всю рекламу на сайте (укажите свой ник в строку Ваше имя)!

×
  
Magnet ссылка

Виктория и Абдул / Victoria & Abdul / Victoria and Abdul (Стивен Фрирз / Stephen Frears) [2017, драма, биография, история, BDRip-AVC] Dub [Лицензия] pb.wtf

Виктория и Абдул через торрент pb.wtf

Размер: 2.22 GB | Добавлен: 2 года 11 мес. назад | Торрент скачан:199 раз
Скачать  

27-01-2018 17:08 Виктория и Абдул Скачать торрент  

Виктория и Абдул
Victoria & Abdul / Victoria and Abdul

«History's most unlikely friendship»


Страна: Великобритания, США
Жанр: драма, биография, история

Год выпуска: 2017
Продолжительность: 01:51:34

Перевод: Профессиональный (полное дублирование) [Blu-ray CEE]
Субтитры: русские (форсированные, полные), английские (полные, SDH, SDH цветные)
Оригинальная аудиодорожка: английский

Режиссер: Стивен Фрирз / Stephen Frears

В ролях: Джуди Денч, Али Фазал, Тим Пиготт-Смит, Эдди Иззард, Адиль Ахтар, Майкл Гэмбон, Пол Хиггинс, Оливия Уильямс, Фенелла Вулгар, Джулиан Уэдэм, Робин Соанс, Рут МакКейб

Описание:
Взойдя на престол в возрасте 18-ти лет, Виктория стала королевой Великобритании, Ирландии, а позже и императрицей Индии. Среди бесчисленных подданных короны был красавец Абдул Карим. Появившись, казалось бы, из ниоткуда, он превратился в очень влиятельного человека при дворе. Ему завидовали, против него плели интриги, а их отношения с королевой обсуждали не только в Англии, но и во всем мире.



Релиз:

Автор рипа: stalkerok | Моя группа

Сэмпл

Качество видео: BDRip-AVC [Victoria.and.Abdul.2017.1080p.BluRay.CEE.AVC.DTS-HD.MA.5.1-PSiG @ HDBits]
Формат видео: MKV
Видео кодек: AVC
Аудио кодек: AC3
Видео: 2011 Кбит/сек, 1152x482 (2.40:1), 23,976 кадр/сек, AVC
Аудио #1: русский, 448 Кбит/сек, 48 КГц, 5.1, AC3
Аудио #2: английский, 384 Кбит/сек, 48 КГц, 5.1, AC3
Навигация по главам: есть

---[Information] [27.01.2018 19:06:07] x264 [info]: frame I:1250 Avg QP:14.79 size: 79379
---[Information] [27.01.2018 19:06:07] x264 [info]: frame P:31681 Avg QP:16.63 size: 24255
---[Information] [27.01.2018 19:06:07] x264 [info]: frame B:127577 Avg QP:18.73 size: 6389

Общее
Уникальный идентификатор : 192058521540572885789176467190932170704 (0x907D203286C7F0AAB09A46248859E7D0)
Полное имя : M:\$new\Victoria and Abdul (2017)\Victoria.and.Abdul.2017.BDRip-AVC.RUS.ENG.stalkerok.new-team.mkv
Формат : Matroska
Версия формата : Version 4 / Version 2
Размер файла : 2,22 Гбайт
Продолжительность : 1 ч. 51 м.
Общий поток : 2845 Кбит/сек
Название фильма : Victoria and Abdul (2017) (Rip by stalkerok)
Дата кодирования : UTC 2018-01-27 16:58:48
Программа кодирования : mkvmerge v8.6.1 ('Flying') 64bit
Библиотека кодирования : libebml v1.3.3 + libmatroska v1.4.4

Видео
Идентификатор : 4
Формат : AVC
Формат/Информация : Advanced Video Codec
Профиль формата : High@L4.1
Параметр CABAC формата : Да
Параметр ReFrames формата : 12 кадров
Идентификатор кодека : V_MPEG4/ISO/AVC
Продолжительность : 1 ч. 51 м.
Битрейт : 2011 Кбит/сек
Ширина : 1152 пикселя
Высота : 482 пикселя
Соотношение сторон : 2,40:1
Режим частоты кадров : Постоянный
Частота кадров : 23,976 (24000/1001) кадра/сек
Цветовое пространство : YUV
Субдискретизация насыщенности : 4:2:0
Битовая глубина : 8 бит
Тип развёртки : Прогрессивная
Бит/(Пиксели*Кадры) : 0.151
Размер потока : 1,57 Гбайт (71%)
Заголовок : Victoria and Abdul (2017) (Rip by stalkerok)
Библиотека кодирования : x264 core 152 r2851kMod ba24899
Настройки программы : cabac=1 / ref=12 / deblock=1:-3:-2 / analyse=0x3:0x133 / me=umh / subme=11 / psy=1 / fade_compensate=0.00 / psy_rd=1.00:0.00 / mixed_ref=1 / me_range=32 / chroma_me=1 / trellis=2 / 8x8dct=1 / cqm=0 / deadzone=21,11 / fast_pskip=0 / chroma_qp_offset=-2 / threads=12 / lookahead_threads=3 / sliced_threads=0 / nr=0 / decimate=1 / interlaced=0 / bluray_compat=0 / constrained_intra=0 / bframes=13 / b_pyramid=2 / b_adapt=2 / b_bias=0 / direct=3 / weightb=1 / open_gop=0 / weightp=2 / keyint=240 / keyint_min=23 / scenecut=40 / intra_refresh=0 / rc_lookahead=60 / rc=crf / mbtree=0 / crf=17.1000 / qcomp=0.65 / qpmin=0 / qpmax=69 / qpstep=4 / vbv_maxrate=50000 / vbv_bufsize=62500 / crf_max=0.0 / nal_hrd=none / filler=0 / ip_ratio=1.40 / pb_ratio=1.30 / aq=3:0.80 / zones=150765,160507,q=28
Default : Да
Forced : Нет

Аудио #1
Идентификатор : 2
Формат : AC-3
Формат/Информация : Audio Coding 3
Расширение режима : CM (complete main)
Параметр Endianness формата : Big
Идентификатор кодека : A_AC3
Продолжительность : 1 ч. 51 м.
Вид битрейта : Постоянный
Битрейт : 448 Кбит/сек
Каналы : 6 каналов
Расположение каналов : Front: L C R, Side: L R, LFE
Частота : 48,0 КГц
Частота кадров : 31,250 кадров/сек (1536 spf)
Метод сжатия : С потерями
Размер потока : 358 Мбайт (16%)
Язык : Russian
Default : Да
Forced : Нет

Аудио #2
Идентификатор : 8
Формат : AC-3
Формат/Информация : Audio Coding 3
Расширение режима : CM (complete main)
Параметр Endianness формата : Big
Идентификатор кодека : A_AC3
Продолжительность : 1 ч. 51 м.
Вид битрейта : Постоянный
Битрейт : 384 Кбит/сек
Каналы : 6 каналов
Расположение каналов : Front: L C R, Side: L R, LFE
Частота : 48,0 КГц
Частота кадров : 31,250 кадров/сек (1536 spf)
Метод сжатия : С потерями
Размер потока : 306 Мбайт (13%)
Язык : English
Default : Нет
Forced : Нет

Текст #1
Идентификатор : 1
Формат : UTF-8
Идентификатор кодека : S_TEXT/UTF8
Идентификатор кодека/Информация : UTF-8 Plain Text
Продолжительность : 1 ч. 43 м.
Битрейт : 1 бит/сек
Count of elements : 33
Размер потока : 1,39 Кбайт (0%)
Заголовок : Forced
Язык : Russian
Default : Да
Forced : Нет

Текст #2
Идентификатор : 3
Формат : UTF-8
Идентификатор кодека : S_TEXT/UTF8
Идентификатор кодека/Информация : UTF-8 Plain Text
Продолжительность : 1 ч. 43 м.
Битрейт : 80 бит/сек
Count of elements : 1286
Размер потока : 61,2 Кбайт (0%)
Язык : Russian
Default : Нет
Forced : Нет

Текст #3
Идентификатор : 5
Формат : UTF-8
Идентификатор кодека : S_TEXT/UTF8
Идентификатор кодека/Информация : UTF-8 Plain Text
Продолжительность : 1 ч. 42 м.
Битрейт : 51 бит/сек
Count of elements : 1311
Размер потока : 38,7 Кбайт (0%)
Язык : English
Default : Нет
Forced : Нет

Текст #4
Идентификатор : 6
Формат : UTF-8
Идентификатор кодека : S_TEXT/UTF8
Идентификатор кодека/Информация : UTF-8 Plain Text
Продолжительность : 1 ч. 42 м.
Битрейт : 54 бит/сек
Count of elements : 1415
Размер потока : 41,0 Кбайт (0%)
Заголовок : SDH
Язык : English
Default : Нет
Forced : Нет

Текст #5
Идентификатор : 7
Формат : UTF-8
Идентификатор кодека : S_TEXT/UTF8
Идентификатор кодека/Информация : UTF-8 Plain Text
Продолжительность : 1 ч. 42 м.
Битрейт : 71 бит/сек
Count of elements : 1415
Размер потока : 53,9 Кбайт (0%)
Заголовок : SDH Colored
Язык : English
Default : Нет
Forced : Нет

Меню
00:00:00.000 : en:Chapter 1
00:06:04.864 : en:Chapter 2
00:11:01.535 : en:Chapter 3
00:16:07.758 : en:Chapter 4
00:20:29.561 : en:Chapter 5
00:28:44.431 : en:Chapter 6
00:35:50.940 : en:Chapter 7
00:41:28.777 : en:Chapter 8
00:49:38.892 : en:Chapter 9
00:55:07.220 : en:Chapter 10
01:00:20.575 : en:Chapter 11
01:07:35.843 : en:Chapter 12
01:12:36.477 : en:Chapter 13
01:18:10.894 : en:Chapter 14
01:21:44.524 : en:Chapter 15
01:27:48.763 : en:Chapter 16
01:31:20.641 : en:Chapter 17
01:39:13.197 : en:Chapter 18
01:42:55.252 : en:Chapter 19
01:44:51.285 : en:Chapter 20
скриншот   скриншот   скриншот   скриншот   скриншот   скриншот   скриншот   скриншот  
pb.wtf



Скачать Виктория и Абдул через торрент http://i6.imageban.ru/out/2017/09/18/2ff75c0c358795c5946784cc1680714d.png Скачать фильм Виктория и Абдул через торрент бесплантно в хорошем качестве Описание:Взойдя на престол в возрасте 18-ти лет, Виктория стала королевой Великобритании, Ирландии, а позже и императрицей Индии. Среди ... 7.8 10 4
Info! Золотая раздача, скачанное не засчитывается.
Торрент: Зарегистрирован [2018-01-27 17:08] · скачан: 199 раз
Статус: √ проверено
Размер: 2.22 GB
Как cкачать? Как скачать Виктория и Абдул через торрент | UTorrent

28-11-2019 20:33  

Отключить всю рекламу на сайте

27-01-2018 17:38 Виктория и Абдул Скачать торрент  

черный Абдул Виктории вдул-)pb.wtf



27-01-2018 17:53 Виктория и Абдул Скачать торрент  

ramilka-master писал(а):

черный Абдул Виктории вдул-)

классpb.wtf



27-01-2018 17:56 Виктория и Абдул Скачать торрент  

ramilka-master, расист, чи шо?
Порнуха если чё в другом разделеpb.wtf



27-01-2018 22:00 Виктория и Абдул Скачать торрент  

sokol_ok писал(а):

ramilka-master, расист, чи шо?
Порнуха если чё в другом разделе

pb.wtf



28-01-2018 04:27 Виктория и Абдул Скачать торрент  

да вдул Абдул конечно. описание к фильму "как бэ намекает")))pb.wtf



28-01-2018 11:55 Виктория и Абдул Скачать торрент  

отстой ...pb.wtf



    Дорогой пользователь! Огромная просьба, поблагодарите релизера, оцените раздачу и оставьте свои комментарий, если Вы скачали Виктория и Абдул через торрент бесплатно! Внесите свою лепту в развитие PiratBit!
    Комментировать посты могут только пользователи прошедшие не сложную регистрацию
    Показать сообщения:    

    Виктория и Абдул через торрент
    Скачать бесплатно Виктория и Абдул
    Виктория и Абдул скачать торрент
    Виктория и Абдул смотреть онлайн
    Cкачать фильм Виктория и Абдул бесплатно
    Виктория и Абдул скачать торрент в хорошем качестве
    Виктория и Абдул смотреть онлайн бесплатно в хорошем качестве


    Вы не можете начинать темы
    Вы не можете отвечать на сообщения
    Вы не можете редактировать свои сообщения
    Вы не можете удалять свои сообщения
    Вы не можете голосовать в опросах
    Вы не можете прикреплять файлы к сообщениям
    Вы можете скачивать файлы