Ссылка на приватное зеркало нашего сайта всего за 1$. Внимание количество ограничено!!!

2 сезон

iTunes

1 сезон

1

iTunes

iTunes

iTunes

1 сезон

RePack

30

ИГРА 18+

pack

ВАЖНО

!!Акция!!

Alien_RageХит недели

RePack

MK11
pack

Забери бонус

RePack

jed

!!Акция!!

Alien_Rage

RePack

fifa19

RePack

Assassins Creed: Odyssey

RePack

NEED FOR SPEED™ PAYBACK

4 сезон

9 сезон

Бесстыжие 9 сезон

Все сериалы

все сериалы на PB.wtf

RePack

FAR CRY 5
  

Секретарша / Сезон 1 / Серии 1-8 из 8 (Радда Новикова) [2018, Детектив, комедия, HDTV 1080i] pb.wtf

Секретарша через торрент pb.wtf

Размер: 20.6 GB | Добавлен: 2 года 9 мес. назад | Торрент скачан:41 раз
Скачать  

28-01-2018 05:35 Секретарша Скачать торрент  

СекретаршаГод выпуска: 2018
Страна: Россия
Жанр: Детектив, комедия
Продолжительность: x ~ 00:47:00
Субтитры: отсутствуют

Режиссер: Радда Новикова



В ролях:

Ксения Лаврова-Глинка, Михаил Трухин, Илья Коробко, Екатерина Агеева, Любовь Толкалина, Сергей Комаров (II), Ёла Санько, Елена Бирюкова, Валерий Ярёменко, Юлия Полынская, Екатерина Кабак, Григорий Перель, Андрей Шибаршин, Игорь Хрипунов, Валентин Самохин, Екатерина Мадалинская, Ольга Виниченко, Екатерина Куликова, Анна Глазкова, Ярослав Ефременко

Описание:

Жизнь Катерины Морозовой отлажена, как часы. Она секретарь в Следственном комитете: должность, может, и не громкая, но сотрудник Катя незаменимый. Ее знание людей, обширная «агентурная сеть» подруг и умение найти общий язык с любым человеком часто помогают в расследованиях. Сын Олег работает тут же следователем. Замуж Катя так и не вышла, но у нее давний роман с адвокатом Евгением Аристовым. Этот баланс оказывается очень хрупким: уход в отставку любимого начальника, трещина в отношениях с Аристовым, странное поведение сына и появление нового руководителя СК, с которым у Морозовой есть своя история в прошлом – все обрушивается на Катю буквально в один день...

Качество: HDTV 1080i
Формат: MPEG-TS

Видео: 1920x1080 (16:9), 25 fps, AVC MPEG-4 (x264), High@L4.0 ~ 5568 kbps , 0.107 bit/pixel
Аудио#1: 48 kHz, AC3 Dolby Digital, 6 ch, ~384 kbps
Аудио#2: 48 kHz, MP 2, 2 ch, ~192.00 kbps avg
скриншот  скриншот  скриншот  скриншот  

General
ID : 1 (0x1)
Complete name : E:\Загруженные\Sekretarsha.HDTV(1080i).GeneralFilm\01.Sekretarsha.HDTV(1080i).GeneralFilm.ts
Format : MPEG-TS
File size : 2.35 GiB
Duration : 51 min 59 s
Overall bit rate mode : Variable
Overall bit rate : 6 469 kb/s

Video
ID : 1904 (0x770)
Menu ID : 80 (0x50)
Format : AVC
Format/Info : Advanced Video Codec
Format profile : High@L4
Format settings : CABAC / 3 Ref Frames
Format settings, CABAC : Yes
Format settings, ReFrames : 3 frames
Codec ID : 27
Duration : 51 min 59 s
Bit rate : 5 568 kb/s
Width : 1 920 pixels
Height : 1 080 pixels
Display aspect ratio : 16:9
Frame rate : 25.000 FPS
Standard : Component
Color space : YUV
Chroma subsampling : 4:2:0
Bit depth : 8 bits
Scan type : Interlaced
Scan type, store method : Separated fields
Scan order : Top Field First
Bits/(Pixel*Frame) : 0.107
Stream size : 2.02 GiB (86%)
Color range : Limited
Color primaries : BT.709
Transfer characteristics : BT.709
Matrix coefficients : BT.709

Audio #1
ID : 2904 (0xB58)
Menu ID : 80 (0x50)
Format : AC-3
Format/Info : Audio Coding 3
Codec ID : 6
Duration : 51 min 59 s
Bit rate mode : Constant
Bit rate : 384 kb/s
Channel(s) : 6 channels
Channel positions : Front: L C R, Side: L R, LFE
Sampling rate : 48.0 kHz
Frame rate : 31.250 FPS (1536 SPF)
Bit depth : 16 bits
Compression mode : Lossy
Delay relative to video : -80 ms
Stream size : 143 MiB (6%)
Language : Russian
Service kind : Complete Main

Audio #2
ID : 2905 (0xB59)
Menu ID : 80 (0x50)
Format : MPEG Audio
Format version : Version 1
Format profile : Layer 2
Codec ID : 3
Duration : 51 min 59 s
Bit rate mode : Constant
Bit rate : 192 kb/s
Channel(s) : 2 channels
Sampling rate : 48.0 kHz
Frame rate : 41.667 FPS (1152 SPF)
Compression mode : Lossy
Delay relative to video : -80 ms
Stream size : 71.4 MiB (3%)
Language : Russian

pb.wtf



Скачать Секретарша через торрент http://a.radikal.ru/a06/1801/0c/e201009bcc32.jpg Скачать фильм Секретарша через торрент бесплантно в хорошем качестве Описание: Жизнь Катерины Морозовой отлажена, как часы. Она секретарь в Следственном комитете: должность, может, и не громкая, но сотрудник ... 10 10 3
Info! Золотая раздача, скачанное не засчитывается.
Торрент: Зарегистрирован [2018-01-28 05:35] · скачан: 41 раз
Статус: √ проверено
Размер: 20.6 GB
Как cкачать? Как скачать Секретарша через торрент | qTorrent

% Раздел Тема Автор DL S | L
Наши сериалы [ 9.48 GB ] Секретарша / Сезон 1 / Серии 1-8 из 8 [2018 WEB-DL 720p] bober100 Скачать
1 | 0
Наши сериалы [ 5.02 GB ] Секретарша / Сезон 1 / Серии 1-8 из 8 [2018 WEB-DLRip] bober100 Скачать
1 | 0
Наши сериалы [ 5.53 GB ] Секретарша / Сезон 1 / Серии 1-8 из 8 [2018 SATRip] bober100 Скачать
1 | 0

28-11-2019 20:33  

Отключить всю рекламу на сайте

    Дорогой пользователь! Огромная просьба, поблагодарите релизера, оцените раздачу и оставьте свои комментарий, если Вы скачали Секретарша через торрент бесплатно! Внесите свою лепту в развитие PiratBit!
    Комментировать посты могут только пользователи прошедшие не сложную регистрацию
    Показать сообщения:    

    Секретарша через торрент
    Скачать бесплатно Секретарша
    Секретарша скачать торрент
    Секретарша смотреть онлайн
    Cкачать фильм Секретарша бесплатно
    Секретарша скачать торрент в хорошем качестве
    Секретарша смотреть онлайн бесплатно в хорошем качестве


    Вы не можете начинать темы
    Вы не можете отвечать на сообщения
    Вы не можете редактировать свои сообщения
    Вы не можете удалять свои сообщения
    Вы не можете голосовать в опросах
    Вы не можете прикреплять файлы к сообщениям
    Вы можете скачивать файлы