Доктор Стрэндж

Лицензия

Добыча

Дубляж

Дом дракона

1 сезон

Тор

Дубляж

В эфире

Дубляж

Там, где раки поют

MVO

Властелин колец

1 сезон

GLOBAL

pack

Рекомендуем

30

Пиратка

ВАЖНО

ВАЖНО

Ghostwire

Пиратка

jed

RePack

nioh2

RePack

RDR2

RePack

NEED FOR SPEED™ PAYBACK

RePack

скачать торрент

Кинопоиск HD

Острые козырьки 6 сезон

6 сезон

FAR CRY 6

RePack

скачать торрент

Лицензия

скачать торрент

MVO

1

1 сезон

скачать торрент

1 сезон

скачать торрент

Лицензия

  

Тепло наших тел / Warm Bodies (Джонатан Левин) [2013, ужасы, мелодрама, комедия, BDRip 720p ] Дубляж, VO

Тепло наших тел через торрент pb.wtf

Размер: 4.66 GB | Добавлен: 4 года 10 мес. назад | Торрент скачан:52 раза
Смотреть онлайн | Скачать   

28-01-2018 07:35 Тепло наших тел Скачать торрент  

Название: Тепло наших тел
Оригинальное название: Warm Bodies
Год выпуска: 2013
Страна: США
Жанр: ужасы, мелодрама, комедия
Продолжительность: 01:37:46
Перевод: дублированный, закадровый одноголосый

Режиссер: Джонатан Левин
В ролях: Николас Холт, Тереза Палмер, Анали Типтон, Роб Кордри, Дэйв Франко, Джон Малкович, Кори Хардрикт, Дэниэл Риндресс-Кей, Винсент Леклерк, Клиффорд ЛеДюк-Вайанкур

Описание: Мир поражён чумой и стоит на грани вымирания. Покойники ходят по земле и норовят употребить в пищу живых, которые, оставшись в катастрофическом меньшинстве, с трудом держат оборону. Перемены начинаются, когда один зомби, чьё имя при жизни начиналось на Р, спасает девушку вместо того, чтобы её съесть. Дружба, завязавшаяся между представителями враждующих сторон, грозит обоим самыми нехорошими последствиями, но Р и Джули, сами того не подозревая, держат в руках простой и единственный ключ к спасению гибнущего мира... Фильм снят по мотивам романа Айзека Мариона «Тепло наших тел» (Warm Bodies, 2010).



Качество: BDRip 720p
Формат: MKV
Видео: MPEG-4 AVC, 5481 Kбит/с, 1280х720
Аудио 1: русский, AC3, 448 kbps, 6 ch, 48 kHz [дублированный]
Аудио 2: русский, AC3, 448 kbps, 6 ch, 48 kHz [закадровый одноголосый, den904]
Аудио 3: английский, AC3, 448 kbps, 6 ch, 48 kHz [оригинал]
Субтитры 1: русские
Субтитры 2: английские
Неименованные главы/чаптеры.
Общее
Уникальный идентификатор : 175697669436564833347903332442305908511 (0x842E23E8E94511508AC9990458E6CF1F)
Полное имя : D:\Video\Тепло наших тел.2013.BDRip.720p by msltel.mkv
Формат : Matroska
Версия формата : Version 4 / Version 2
Размер файла : 4,66 Гбайт
Продолжительность : 1 ч. 37 м.
Общий поток : 6828 Кбит/сек
Название фильма : Rip by msltel
Дата кодирования : UTC 2018-01-27 15:47:41
Программа кодирования : mkvmerge v8.2.0 ('World of Adventure') 64bit
Библиотека кодирования : libebml v1.3.1 + libmatroska v1.4.2

Видео
Идентификатор : 1
Формат : AVC
Формат/Информация : Advanced Video Codec
Профиль формата : [email protected]
Настройки формата : CABAC / 9 Ref Frames
Параметр CABAC формата : Да
Параметр RefFrames формата : 9 кадров
Идентификатор кодека : V_MPEG4/ISO/AVC
Продолжительность : 1 ч. 37 м.
Битрейт : 5481 Кбит/сек
Ширина : 1280 пикселей
Высота : 720 пикселей
Соотношение сторон : 16:9
Режим частоты кадров : Постоянный
Частота кадров : 23,976 (24000/1001) кадра/сек
Цветовое пространство : YUV
Субдискретизация насыщенности : 4:2:0
Битовая глубина : 8 бит
Тип развёртки : Прогрессивная
Бит/(Пиксели*Кадры) : 0.248
Размер потока : 3,74 Гбайт (80%)
Библиотека кодирования : x264 core 146 r2538 121396c
Настройки программы : cabac=1 / ref=9 / deblock=1:-3:-2 / analyse=0x3:0x113 / me=umh / subme=11 / psy=1 / psy_rd=1.00:0.15 / mixed_ref=1 / me_range=32 / chroma_me=1 / trellis=2 / 8x8dct=1 / cqm=0 / deadzone=21,11 / fast_pskip=0 / chroma_qp_offset=-3 / threads=6 / lookahead_threads=1 / sliced_threads=0 / nr=0 / decimate=1 / interlaced=0 / bluray_compat=0 / constrained_intra=0 / bframes=6 / b_pyramid=2 / b_adapt=2 / b_bias=0 / direct=1 / weightb=1 / open_gop=0 / weightp=2 / keyint=230 / keyint_min=23 / scenecut=40 / intra_refresh=0 / rc_lookahead=40 / rc=crf / mbtree=0 / crf=19.3 / qcomp=0.60 / qpmin=0 / qpmax=69 / qpstep=4 / vbv_maxrate=62500 / vbv_bufsize=78125 / crf_max=0.0 / nal_hrd=none / filler=0 / ip_ratio=1.40 / pb_ratio=1.30 / aq=1:1.00
Язык : English
Default : Да
Forced : Нет

Аудио #1
Идентификатор : 2
Формат : AC-3
Формат/Информация : Audio Coding 3
Идентификатор кодека : A_AC3
Продолжительность : 1 ч. 37 м.
Вид битрейта : Постоянный
Битрейт : 448 Кбит/сек
Каналы : 6 каналов
Расположение каналов : Front: L C R, Side: L R, LFE
Частота : 48,0 КГц
Частота кадров : 31,250 кадров/сек (1536 SPF)
Битовая глубина : 16 бит
Метод сжатия : С потерями
Размер потока : 313 Мбайт (7%)
Заголовок : Дубляж
Язык : Russian
ServiceKind/String : Complete Main
Default : Нет
Forced : Нет

Аудио #2
Идентификатор : 3
Формат : AC-3
Формат/Информация : Audio Coding 3
Идентификатор кодека : A_AC3
Продолжительность : 1 ч. 37 м.
Вид битрейта : Постоянный
Битрейт : 448 Кбит/сек
Каналы : 6 каналов
Расположение каналов : Front: L C R, Side: L R, LFE
Частота : 48,0 КГц
Частота кадров : 31,250 кадров/сек (1536 SPF)
Битовая глубина : 16 бит
Метод сжатия : С потерями
Размер потока : 313 Мбайт (7%)
Заголовок : den904
Язык : Russian
ServiceKind/String : Complete Main
Default : Да
Forced : Нет

Аудио #3
Идентификатор : 4
Формат : AC-3
Формат/Информация : Audio Coding 3
Идентификатор кодека : A_AC3
Продолжительность : 1 ч. 37 м.
Вид битрейта : Постоянный
Битрейт : 448 Кбит/сек
Каналы : 6 каналов
Расположение каналов : Front: L C R, Side: L R, LFE
Частота : 48,0 КГц
Частота кадров : 31,250 кадров/сек (1536 SPF)
Битовая глубина : 16 бит
Метод сжатия : С потерями
Размер потока : 313 Мбайт (7%)
Заголовок : original
Язык : English
ServiceKind/String : Complete Main
Default : Нет
Forced : Нет

Текст #1
Идентификатор : 5
Формат : UTF-8
Идентификатор кодека : S_TEXT/UTF8
Идентификатор кодека/Информация : UTF-8 Plain Text
Продолжительность : 1 ч. 30 м.
Битрейт : 58 бит/сек
ElementCount : 628
Размер потока : 38,7 Кбайт (0%)
Заголовок : русские.Spanky_G
Язык : Russian
Default : Нет
Forced : Нет

Текст #2
Идентификатор : 6
Формат : UTF-8
Идентификатор кодека : S_TEXT/UTF8
Идентификатор кодека/Информация : UTF-8 Plain Text
Продолжительность : 1 ч. 30 м.
Битрейт : 37 бит/сек
ElementCount : 897
Размер потока : 24,8 Кбайт (0%)
Заголовок : английские
Язык : English
Default : Нет
Forced : Нет

Меню
00:00:00.000 : en:Chapter 1
00:06:39.857 : en:Chapter 2
00:12:24.201 : en:Chapter 3
00:19:24.580 : en:Chapter 4
00:24:22.919 : en:Chapter 5
00:31:17.625 : en:Chapter 6
00:40:52.408 : en:Chapter 7
00:45:32.563 : en:Chapter 8
00:49:56.284 : en:Chapter 9
00:55:44.090 : en:Chapter 10
01:02:25.491 : en:Chapter 11
01:08:49.875 : en:Chapter 12
01:14:08.861 : en:Chapter 13
01:17:27.392 : en:Chapter 14
01:24:00.702 : en:Chapter 15
01:30:30.758 : en:Chapter 16



Скачать Тепло наших тел через торрент https://b.radikal.ru/b18/1801/c6/538a71b821c7.jpg Скачать, смотреть онлайн Тепло наших тел бесплантно в хорошем качестве Описание: Мир поражён чумой и стоит на грани вымирания. Покойники ходят по земле и норовят употребить в пищу живых, которые, оставшись в ... 10 10 3
Info! Золотая раздача, скачанное не засчитывается.
Торрент: Зарегистрирован [2018-01-28 07:35] · скачан: 52 раз
Статус: √ проверено
Размер: 4.66 GB
Как cкачать? Как скачать Тепло наших тел через торрент | UTorrent

28-11-2019 20:33  


Отключить вcю реклaмy на сайте, в т.ч. и в плеере онлайн просмотра!

28-01-2018 08:02 Тепло наших тел Скачать торрент  

девушка некрофилка. Влюбилась в вонючий труп. И секс с гниющим трупом думаю тоже будет. Этож надо было такое придумать



28-01-2018 08:03 Тепло наших тел Скачать торрент  

классная зомбо мелодрама)))



28-01-2018 08:43 Тепло наших тел Скачать торрент  

зомби-порно еще бы сняли!



28-01-2018 10:29 Тепло наших тел Скачать торрент  

Неудачная подборка актеров. Если бы вместо гг поставили Редклифа, он бы зомби сыграл более достоверно. Доказано фильмами про Гарри Поттера



    Дорогой пользователь! Огромная просьба, поблагодарите релизера, оцените раздачу и оставьте свои комментарий, если Вы скачали Тепло наших тел через торрент бесплатно!!
    Комментировать посты могут только пользователи прошедшие не сложную регистрацию
    Показать сообщения:    


    Тепло наших тел через торрент
    Скачать бесплатно Тепло наших тел
    Тепло наших тел скачать торрент
    Тепло наших тел смотреть онлайн
    Cкачать фильм Тепло наших тел бесплатно
    Тепло наших тел скачать торрент в хорошем качестве
    Тепло наших тел смотреть онлайн бесплатно в хорошем качестве
    Вы не можете начинать темы
    Вы не можете отвечать на сообщения
    Вы не можете редактировать свои сообщения
    Вы не можете удалять свои сообщения
    Вы не можете голосовать в опросах
    Вы не можете прикреплять файлы к сообщениям
    Вы можете скачивать файлы
    Тепло наших тел / Warm Bodies [2013, ужасы, мелодрама, комедия, BDRip 720p ] Дубляж, VO смотреть онлайн, скачать торрент picoco.icu