2 сезон

iTunes

MVO

1

2 сезон

iTunes

iTunes

1 сезон

RePack

30

Новинка

ВАЖНО

ИГРА 18+

pack

RePack

MK11
pack

Легкие деньги

RePack

jed

RePack

fifa19

RePack

RDR2

RePack

NEED FOR SPEED™ PAYBACK

4 сезон

9 сезон

Бесстыжие 9 сезон

Все сериалы

все сериалы на PB.wtf

RePack

FAR CRY 5

Anonymous, доброй ночи, мы не успеваем собрать деньги на оплату серверов за декабрь и январь, помогите нам пожалуйста в это трудное время. В качестве благодарности мы отключим Вам всю рекламу на сайте (укажите свой ник в строку Ваше имя)!

×
  
Magnet ссылка

Скрюченный домишко / Crooked House (Жиль Паке-Бреннер) [2017, Драма, криминал, детектив, HDRip-AVC] MVO [Лицензия / iTunes] pb.wtf

Скрюченный домишко через торрент pb.wtf

Размер: 3.94 GB | Добавлен: 2 года 11 мес. назад | Торрент скачан:225 раз
Скачать  

28-01-2018 09:03 Скрюченный домишко Скачать торрент  

Скрюченный домишко / Crooked House

Год выпуска: 2017
Страна: Великобритания
Жанр: Драма, криминал, детектив
Продолжительность: 01:55:11
Перевод: Профессиональный многоголосый [Лицензия / iTunes]
Режиссер: Жиль Паке-Бреннер
В ролях:

Кристина Хендрикс (Brenda), Джиллиан Андерсон (Magda), Хонор Книфси (Josephine), Гленн Клоуз (Lady Edith), Макс Айронс (Charles Hayward), Стефани Мартини (Sophia de Haviland), Теренс Стэмп (Chief Inspector Taverner), Джулиан Сэндс (Philip Leonides), Аманда Аббингтон (Clemency Leonides), Кристиан МакКэй (Roger Leonides), Роджер Эштон-Гриффитс (Gaitskill), Джон Хеффернан (Laurence Brown)
Описание:
София, внучка олигарха Аристида Леонидиса, приглашает частного детектива Чарльза Хейуорда расследовать убийство ее дедушки. Она уверена: кто-то из домочадцев отравил его. Взявшись за расследование, Чарльз выясняет, что мотив мог быть у всех. Даже у Софии…

rating
Релиз от:
Качество: HDRip-AVC
Формат: MKV
Видео кодек: AVC
Аудио кодек: AC3, DTS
Видео: AVC, 1024x432 (2.40:1), ~3000 kbps, 23,976 fps, 0,283 bpp
Аудио №1: AC3 / 5.1 / 48 kHz / 384 kbps / Русский
Аудио №2: DTS / 5.1 / 48 kHz / 1509 kbps / 24 bit Английский
General
Unique ID : 314141644886389844808567844238088666588 (0xEC557AE5A4A3A54FF24AEA015326FDDC)
Format : Matroska
Format version : Version 4 / Version 2
File size : 3.94 GiB
Duration : 1 h 55 min
Overall bit rate : 4 894 kb/s
Movie name : Crooked House (2017) BDRip-AVC by WSM
Encoded date : UTC 2018-01-27 12:52:09
Writing application : mkvmerge v20.0.0 ('I Am The Sun') 64-bit
Writing library : libebml v1.3.5 + libmatroska v1.4.8

Video
ID : 1
Format : AVC
Format/Info : Advanced Video Codec
Format profile : High@L4.1
Format settings, CABAC : Yes
Format settings, ReFrames : 9 frames
Codec ID : V_MPEG4/ISO/AVC
Duration : 1 h 55 min
Bit rate : 3 000 kb/s
Width : 1 024 pixels
Height : 432 pixels
Display aspect ratio : 2.40:1
Frame rate mode : Constant
Frame rate : 23.976 (24000/1001) FPS
Color space : YUV
Chroma subsampling : 4:2:0
Bit depth : 8 bits
Scan type : Progressive
Bits/(Pixel*Frame) : 0.283
Stream size : 2.41 GiB (61%)
Writing library : x264 core 152 r2851 ba24899
Encoding settings : cabac=1 / ref=10 / deblock=1:-3:-3 / analyse=0x3:0x133 / me=umh / subme=10 / psy=0 / mixed_ref=1 / me_range=16 / chroma_me=1 / trellis=2 / 8x8dct=1 / cqm=0 / deadzone=21,11 / fast_pskip=0 / chroma_qp_offset=0 / threads=6 / lookahead_threads=1 / sliced_threads=0 / nr=0 / decimate=0 / interlaced=0 / bluray_compat=0 / constrained_intra=0 / bframes=5 / b_pyramid=1 / b_adapt=2 / b_bias=0 / direct=3 / weightb=1 / open_gop=0 / weightp=2 / keyint=240 / keyint_min=23 / scenecut=40 / intra_refresh=0 / rc=2pass / mbtree=0 / bitrate=3000 / ratetol=1.0 / qcomp=0.60 / qpmin=10 / qpmax=51 / qpstep=4 / cplxblur=20.0 / qblur=0.5 / ip_ratio=1.40 / pb_ratio=1.30 / aq=1:1.00
Default : Yes
Forced : No

Audio #1
ID : 2
Format : AC-3
Format/Info : Audio Coding 3
Mode extension : CM (complete main)
Format settings, Endianness : Big
Codec ID : A_AC3
Duration : 1 h 55 min
Bit rate mode : Constant
Bit rate : 384 kb/s
Channel(s) : 6 channels
Channel positions : Front: L C R, Side: L R, LFE
Sampling rate : 48.0 kHz
Frame rate : 31.250 FPS (1536 spf)
Compression mode : Lossy
Stream size : 316 MiB (8%)
Language : Russian
Default : Yes
Forced : No

Audio #2
ID : 3
Format : DTS
Format/Info : Digital Theater Systems
Mode : 16
Format settings, Endianness : Big
Codec ID : A_DTS
Duration : 1 h 55 min
Bit rate mode : Constant
Bit rate : 1 509 kb/s
Channel(s) : 6 channels
Channel positions : Front: L C R, Side: L R, LFE
Sampling rate : 48.0 kHz
Frame rate : 93.750 FPS (512 spf)
Bit depth : 24 bits
Compression mode : Lossy
Stream size : 1.21 GiB (31%)
Language : English
Default : No
Forced : No
pb.wtf



Скачать Скрюченный домишко через торрент http://lostpix.com/img/2018-01/28/hchqwbns0fugd6ka1fz7wl0nf.jpg Скачать фильм Скрюченный домишко через торрент бесплантно в хорошем качестве Описание: София, внучка олигарха Аристида Леонидиса, приглашает частного детектива Чарльза Хейуорда расследовать убийство ее дедушки. Она ... 6.5 10 6
Торрент: Зарегистрирован [2018-01-28 09:03] · скачан: 225 раз
Статус: # сомнительно
Размер: 3.94 GB
Как cкачать? Как скачать Скрюченный домишко через торрент | UTorrent

% Раздел Тема Автор DL S | L
Фильмы 2017 [DVDrip, WEB-DLRip, HDrip] (DUB, MVO) [ 1.41 GB ] Скрюченный домишко / Crooked House [2017 BDRip] MVO Twi7ter Скачать
8 | 1
Фильмы 2017 [DVDrip, WEB-DLRip, HDrip] (DUB, MVO) [ 1.41 GB ] Скрюченный домишко / Crooked House [2017 BDRip] MVO bober100 Скачать
1 | 0
Фильмы (WEB-DL 720p, 1080p) [ 4.31 GB ] Скрюченный домишко / Crooked House [2017 WEB-DL 1080p] MVO bober100 Скачать
1 | 0
Фильмы 2017 [DVDrip, WEB-DLRip, HDrip] (DUB, MVO) [ 2.04 GB ] Скрюченный домишко / Crooked House [2017 WEB-DLRip] [MVO] killermax2013 Скачать
1 | 0

28-11-2019 20:33  

Отключить всю рекламу на сайте

28-01-2018 13:50 Скрюченный домишко Скачать торрент  

WorldSM писал(а):

Аудио №2: DTS / 5.1 / 48 kHz / 1509 kbps / 24 bit Английский

WorldSM, не имеет смысла прикручивать к AVC рипу аудиодорожку DTS / 1509 kbps.
АС3 / 448 kbps - это максимум для АVC рипов.

Вы, как участник группы R.G. HD-Films, имеете доступ к закрытому форуму. По поводу работы со звуком можете прочитать здесь: Подготовка извлечённого с Blu-Ray звука для релиза

И не забывайте, пожалуйста, делать кроп. Обратите внимание на черные полоски на скриншотах, у вас недокроп по 2 пикселя сверху и снизу.pb.wtf



28-01-2018 14:07 Скрюченный домишко Скачать торрент  

-Lexx- писал(а):

WorldSM писал(а):

Аудио №2: DTS / 5.1 / 48 kHz / 1509 kbps / 24 bit Английский

WorldSM, не имеет смысла прикручивать к AVC рипу аудиодорожку DTS / 1509 kbps.
АС3 / 448 kbps - это максимум для АVC рипов.

Вы, как участник группы R.G. HD-Films, имеете доступ к закрытому форуму. По поводу работы со звуком можете прочитать здесь: Подготовка извлечённого с Blu-Ray звука для релиза

И не забывайте, пожалуйста, делать кроп. Обратите внимание на черные полоски на скриншотах, у вас недокроп по 2 пикселя сверху и снизу.

ок. Учту.pb.wtf



    Дорогой пользователь! Огромная просьба, поблагодарите релизера, оцените раздачу и оставьте свои комментарий, если Вы скачали Скрюченный домишко через торрент бесплатно! Внесите свою лепту в развитие PiratBit!
    Комментировать посты могут только пользователи прошедшие не сложную регистрацию
    Показать сообщения:    

    Скрюченный домишко через торрент
    Скачать бесплатно Скрюченный домишко
    Скрюченный домишко скачать торрент
    Скрюченный домишко смотреть онлайн
    Cкачать фильм Скрюченный домишко бесплатно
    Скрюченный домишко скачать торрент в хорошем качестве
    Скрюченный домишко смотреть онлайн бесплатно в хорошем качестве


    Вы не можете начинать темы
    Вы не можете отвечать на сообщения
    Вы не можете редактировать свои сообщения
    Вы не можете удалять свои сообщения
    Вы не можете голосовать в опросах
    Вы не можете прикреплять файлы к сообщениям
    Вы можете скачивать файлы